This file was generated by Ched 2.7.0.0.
#TITLE ""
#ARTIST ""
#DESIGNER ""
#DIFFICULTY 0
#PLAYLEVEL
#SONGID ""
#WAVE ""
#WAVEOFFSET 0
#JACKET ""
#REQUEST "ticks_per_beat 480"
#00002: 4
#BPM01: 135
#00008: 01
#TIL00: ""
#HISPEED 00
#MEASUREHS 00
#00012:000000000000000000000013000013000000000000000000
#0001b:0000002300001313
#00016:000000000000000000000000000000000013000013000013
#00018:0023000000000000
#00312:000000230013000000000013000000000013000000000000
#00318:000000000000000000000013000000000000000013000000
#0031b:000000000000001300000000
#00315:000000000000000000230000000000000000000000130013
#03312:000000000013000000000013000000130023000000130000
#0331b:000000130000000000130000000000000023000000000000
#03317:0000130013000013
#03316:001300001300000000000000
#0341b:0013131300000013
#03412:0000001300131313
#03419:00000013
#03414:00130000
#03618:000000000000000000000000130000000013000000000000
#0361b:1313131300000013
#03615:000000000000000000000013000000230000000000130000
#03612:2323232300000000
#03715:000000000013
#03718:0000000000000013
#03712:000000000000000000000000000000000000000000000013
#03818:000013000000000000130000000013000000000000130000
#03815:000000130000000013000000000000130000000000000013
#0381b:000000000013000000000000000000000013000000000000
#03812:000000000000000000000013000000000000000013000000
#0391b:13
#03915:000000130013000013000000260000260000260000000000
#03918:000013000000130000130013000000000000000000000000
#04112:0000001300000000
#04114:0013
#04116:0000000000130000
#04118:00000013
#0411a:0000000000000013
#04115:000000000013
#04110:41
#0431b:0000001300002300
#04318:0000000013000013
#04315:000000000000000000000000000000130000000013000000
#04312:00000023
#01818:000000130000000000000000000000130000000013000013
#01815:0000001300000013
#01812:000000000000000000000000000000000023000000000000
#0181b:000000000000000000000000000000000023000000000000
#01915:1323000000130000
#01912:000000000000130000230000000000000023000000000000
#0191b:000000230000000000000000000000000023000000000000
#01918:0000002300000000
#0201b:230000000000130000130000000000000013000000000000
#02016:001300
#02019:0013
#02012:230000000000000000000000000013000013000000130000
#02017:0000000000130000
#02018:000000000013
#02015:000000000000000000000000000000000000000000000013
#02014:000000000000000000000013000000000000000000000000
#0211b:13131313
#02118:001300001300001300001300
#02112:0013001300130013
#02115:000000000013000000000013000000000013000000000013
#02412:0013
#02418:000000000000001300001300
#02415:000000000000000000000000000000130000000000130013
#0241b:230000000000000000000000000000000013000000000000
#02410:41
#02615:1300000000230000
#0261b:0023130000000000
#02613:0000002313000000
#0261a:0000000000231300
#02616:0023000000000000
#02618:0000002300000000
#02612:0000000000000023
#02617:0000000000000023
#02818:000000000000000000000000130000000000000000130013
#02815:000000000012000000000000000013000000000013000000
#0281b:0012000000130000
#02812:000000000000000000000000000000000013000000000000
#0281c:12
#02816:001200000000000000000000
#0281a:00120000
#02814:001200
#02819:0000001200000000
#02813:000000000000000000000012000000000000000000000000
#04716:001200120000000000000000
#04718:0012000000130000
#0471a:001200
#04714:0000001200000000
#0471b:000000130013
#04715:000000000000001300130000
#04712:2300000000000013
#04918:000000000000000000130000000000000013000000000000
#0491b:0000130013000013
#04915:000000000000000000000013000000130000000000000000
#04912:13130013
#04916:0000000000000013
#04917:13
#05312:0026002313000023
#0531b:1300130000231300
#05318:000013000000000000230000000000000000000000230000
#05315:0000000000230000
#05412:0013001300000000
#05415:00130000
#0541b:0000000000130013
#05418:00000013
#05410:41
#0551b:1313000000000000
#05518:000000000000130000130000000013000000000013000000
#05515:000013000000000013000000130000130000000000000000
#05512:0000000000001313
#0581b:1313
#05815:000013000000000000230000000013000000000000230000
#05812:000000000000130000000000000000000013000000000000
#05818:000000230000000013000000000000230000000013000000
#05913:1424000000000000
#0591b:0000130000230000
#05915:001300
#05912:000000000000000000000013000000000000000000000000
#05919:1424000000000000
#05916:0000000000230000
#05918:0000002300000000
#0121b:1313
#01215:130013000000000000230000000013000013000000230000
#01212:00131300
#01218:000000230000130013000000000000230000000013000000
#01312:0000130000230000
#01318:001300
#0131b:000000230000000000000013000000000000000000230000
#01314:00000023
#01316:0000000000000023
#01319:00000023
#01317:0000000000230000
#01315:0000002300000000
#0621b:1323000013000023
#06216:001300000000000000000000
#06217:0000132300000000
#06212:000013130013
#06218:000000000000000000000000000013000013000000000000
#06215:0000000000231300
#06316:1400000000230000
#06312:000000230000130000000013000000000000000000000000
#06315:001300
#0631b:000000230000000000000013000000230000000000000000
#06318:0000002300000000
#0011b:000000000000000000000013000013000000000000000000
#00112:0000002300001313
#00117:000000000000000000000000000000000013000013000013
#00115:0023000000000000
#00212:000000000000000000000013000013000000000000000013
#0021b:0000002300001300
#00214:000000000013
#00219:0000000000000013
#00216:000000000000000000000000000000000013000000000000
#00218:0023000000000000
#0041b:000000000000000000000013000013000000000000000000
#00412:0000002300001313
#00417:000000000000000000000000000000000013000013000013
#00415:0023000000000000
#0071b:000000230013000000000013000000000013000000000000
#00715:000000000000000000000013000000000000000000130013
#00712:000000000000001300000000
#00718:000000000000000000230000000000000000000013000000
#00512:000000000000000000000013000013000000000000000000
#0051b:0000002300001313
#00516:000000000000000000000000000000000013000013000013
#00518:0023000000000000
#0061b:000000000000000000000013000013000000000000000013
#00612:0000002300001300
#00619:000000000013
#00614:0000000000000013
#00617:000000000000000000000000000000000013000000000000
#00615:0023000000000000
#00818:130000000000000000000000000000000013000000000000
#00817:00130000
#00816:0013
#00815:000000000013
#00812:0023002300230023
#0081b:0023002300230023
#00810:41
#00917:1300000000230000
#00915:000000000000130000000013000000000000000000000000
#00918:000013130000
#00912:0023002300230000
#0091b:0023002300000023
#00919:00000023
#00914:00000023
#00916:0000000000000023
#01017:1313
#01016:00130000
#01015:000000000000000000000000000000000013000000000000
#01018:000000000013
#01012:1323002300230023
#0101b:0023002300230023
#01116:1300000000230000
#01118:000000000000130000000013000000000000000000000000
#01115:000013130000
#0111b:0023002300230000
#01112:0023002300000023
#01114:00000023
#01119:00000023
#01117:0000000000000023
#01412:1313
#01418:130013000000000000230000000013000013000000230000
#0141b:00131300
#01415:000000230000130013000000000000230000000013000000
#0151b:0000130000230000
#01515:001300
#01512:000000230000000000000013000000000000000000230000
#01519:00000023
#01517:0000000000000023
#01514:00000023
#01516:0000000000230000
#01518:0000002300000000
#01612:23130000
#01618:000000000000000012000012000012000000000012000000
#01616:0000001212121200
#01619:000000000000000000000000000000000012000000000000
#01615:0000000000000012
#0161a:000000000000000000000000000000000000000000000012
#0161b:23
#01610:41
#01716:12121212
#01718:001200001200001200001200
#01714:0012001200000000
#0171a:000000000012000000000000000000000000000000000000
#0171b:000000000000000000000012000000000012000000000012
#01713:0000000000120012
#02215:000000130000000000000000000000130000000013000013
#02218:0000001300000013
#0221b:000000000000000000000000000000000023000000000000
#02212:000000000000000000000000000000000023000000000000
#02318:1323000000130000
#0231b:000000000000130000230000000000000023000000000000
#02312:000000230000000000000000000000000023000000000000
#02315:0000002300000000
#0251b:0013
#02515:000000000000001300001300
#02518:000000000000000000000000000000130000000000130013
#02512:000000000000000000000000000000000013000000000000
#02712:1323000000230000
#02718:00130013
#02715:0013
#0271b:0023000000230000
#02714:0000002300000023
#02719:0000002300000023
#03012:0023130000000000
#0301a:0000002313000000
#03013:0000000000231300
#0301b:1300000000000023
#03017:0023000000000000
#03015:0000002300000000
#03018:0000000000230000
#03016:0000000000000023
#0311b:1300001300000000
#03114:0023000000000000
#03119:0023000000000000
#03112:0000000000000023
#03110:41
#03212:130000130000130000130000130000000000000000000013
#0321b:230000230000230000230000130000000000000000000013
#03215:000000000000000000000000000000130013000000000000
#03218:000000000013
#0321f:11
#03512:0000000000131300
#03518:000000000013
#03515:000000000000000000000000000000000000000000130013
#04012:000000000000230000000000000000000013000000130000
#04017:000000230000000000000000000000000013000000130000
#04016:0000002300000000
#0401b:23
#0401f:21
#0421b:000000000000230000000000000000000013000000130000
#04216:000000230000000000000000000000000013000000130000
#04217:0000002300000000
#04212:23
#04412:000000000000000000230000000000000013000000130000
#04417:230000000000000000000000000000000013000000130000
#0441b:0023000000000000
#04416:00230000
#04512:0000001300000000
#04517:0000001300000000
#0461b:2300001300000000
#04616:0000001300000000
#04618:0023000000000000
#04612:0023000000000000
#04816:2424000000000013
#0481b:0000000000000013
#04812:00241300
#04817:0013
#0481a:00240000
#05115:000000000000000000130000000000000013000000000000
#05112:0000130013000013
#05118:000000000000000000000013000000130000000000000000
#0511b:13130013
#05117:0000000000000013
#05116:13
#0521b:1313
#05218:000013000000000000260000000013000000000000260000
#05212:0026130000261300
#05215:000013000013
#05612:12
#05614:0012000000000000
#05616:00121200
#05618:0000001200120000
#0561a:00000012
#0561c:0000000000000012
#06012:1313
#06018:000013000000000000230000000013000000000000230000
#0601b:000000000000130000000000000000000013000000000000
#06015:000000230000000013000000000000230000000013000000
#06119:1424000000000000
#06112:0000130000230000
#06118:001300
#0611b:000000000000000000000013000000000000000000000000
#06113:1424000000000000
#06117:0000000000230000
#06115:0000002300000000
#0651b:000000230000130000000013000000000000000000000000
#06518:001300
#06512:000000230000000000000013000000230000000000000000
#06516:14
#06515:0000002300000000
#06517:0000000000230000
#05017:0000000000000013
#05012:0000002300000013
#0501b:0023000013000000
#05016:24241300
#02915:000000000000000000120000130000000000000000130013
#02918:001200000000001300001300
#02912:1200000000130000
#0291b:000000000000000000000012000000000013000000000000
#02913:0012000000000000
#02919:000000000012000000000000000000000000000000000000
#02914:00120000
#0291a:001200
#06412:1323000013000023
#06417:001300000000000000000000
#06416:0000132300000000
#0641b:000013130013
#06415:000000000000000000000000000013000013000000000000
#06418:0000000000231300
#06612:2c
#05714:0000000022222200
#0571a:0000000022222200
#03352:0000000000000063
#03357:0053
#0345b:0000005300000000
#03452:0000000000000053
#03152:0000000000000013
#06652:1c
#00352:000000000000000000000013000000000013000000000000
#0035b:000000000000001300000000
#0075b:000000000000000000000013000000000013000000000000
#00752:000000000000001300000000
#0275b:0013000000130000
#02752:0013000000130000
#02754:0000001300000013
#02759:0000001300000013
#03752:000000000000000000000000000000130000000000000013
#03758:0000000000130000
#0365b:0000000000000023
#03655:0000000000000023
#0385b:000000000013000000000000000000000013000000000000
#03852:000000000000000000000013000000000000000000000000
#04052:0000000000000053
#04057:0000000000000053
#04156:0013000000000000
#0415b:0013000000000000
#0425b:0000000000000063
#04256:0000000000000063
#04357:0013000000000000
#04352:0013000000000000
#04452:0000000000000053
#04457:0000000000000053
#04556:0013000000000000
#0455b:0013000000000000
#04557:0000005300000000
#04656:0000006300000000
#0485a:00140000
#04852:00145300
#04856:0000000000000053
#0485b:0000000000000053
#04857:0053
#05252:0016000000160000
#05258:0000001600000016
#05352:0016001300000013
#05358:0000001300000013
#0535b:0000000000130000
#05355:0000000000130000
#0325b:0053
#04952:23
#04956:0043000000000000
#04957:23
#0495b:0043000000000000
#05057:0000000000000063
#05052:0000000000000063
#0505b:0063
#05056:0063
#0515b:23
#05156:23
#05157:0033000000000000
#05152:0033000000000000
#000320:1323000000000000
#000350:0000132300000000
#000380:000000000000000000000013000023000000000000000000
#0013b0:1323000000000000
#001380:0000132300000000
#001350:000000000000000000000013000023000000000000000000
#002320:1323000000000000
#002350:0000132300000000
#002380:000000000000000000000013000023000000000000000000
#003370:1323000000000000
#0033b0:0000132300000000
#0043b0:1323000000000000
#004380:0000132300000000
#004350:000000000000000000000013000023000000000000000000
#005320:1323000000000000
#005350:0000132300000000
#005380:000000000000000000000013000023000000000000000000
#0063b0:1323000000000000
#006380:0000132300000000
#006350:000000000000000000000013000023000000000000000000
#007360:1323000000000000
#007320:0000132300000000
#013320:13
#013360:0023000000000000
#0153b0:13
#015370:0023000000000000
#0163b0:0013230000000000
#018350:13
#018320:0023000000000000
#018380:00130000
#0183b0:0000002300000000
#018350:0013
#018320:0000000000230000
#019380:0013
#0193b0:0000000000230000
#019320:000000000000000000000000000000000013000000230000
#0193b1:000000000000000000000000000000000013000000230000
#020321:0013230000000000
#022381:13
#0223b1:0023000000000000
#022351:00130000
#022321:0000002300000000
#022381:0013
#0223b1:0000000000230000
#023351:0013
#023321:0000000000230000
#0233b1:000000000000000000000000000000000013000000230000
#023320:000000000000000000000000000000000013000000230000
#024320:13
#024340:003300000000000000000000
#024350:0023000000000000
#024381:0013000000000000
#0243a1:000000000033000000000000000000000000000000000000
#0243b1:00230000
#024320:00130000
#024340:003300
#024350:0000002300000000
#024381:0000001300000000
#0243a1:000000000000000000000033000000000000000000000000
#0243b1:0023
#0253b1:13
#025391:003300000000000000000000
#025381:0023000000000000
#025350:0013000000000000
#025330:000000000033000000000000000000000000000000000000
#025320:00230000
#0253b1:00130000
#025391:003300
#025381:0000002300000000
#025350:0000001300000000
#025330:000000000000000000000033000000000000000000000000
#025320:0023
#031320:0000001300000000
#031350:0023
#0313b1:0013
#031381:0000000000230000
#031350:0000000000130000
#031320:00000023
#031381:00000013
#0313b1:0000000000000023
#0323b1:0013
#032381:000000000000000000000000000000000023000000000000
#033371:0013
#0333b1:0000000000230000
#033321:0000000000000013
#034361:0023000000000000
#0343b1:0000001300000000
#034371:0000000000230000
#034321:0000000000000013
#035361:0023000000000000
#0353b0:0013000000000000
#035370:00230000
#035321:00130000
#035361:0000002300000000
#0353b0:0000001300002300
#035370:0033
#036350:0000000000000013
#037320:0033003300230000
#037350:00333300
#0363b1:0000000000000013
#037381:0033003300230000
#0373b1:00333300
#040321:1323000000000000
#0403b1:0000132300000000
#040361:0013
#040321:0000000000230000
#0403b0:0013
#040370:0000000000230000
#040320:0000000000000013
#041360:0023000000000000
#040371:0000000000000013
#0413b1:0023000000000000
#0423b1:1323000000000000
#042321:0000132300000000
#042371:0013
#0423b1:0000000000230000
#042320:0013
#042360:0000000000230000
#0423b0:0000000000000013
#043370:0023000000000000
#042361:0000000000000013
#043321:0023000000000000
#044321:13
#044361:0023000000000000
#0443b1:00130000
#044371:0000002300000000
#044361:0013
#044321:0000000000230000
#0443b0:0013
#044370:0000000000230000
#044320:0000000000000013
#045360:0023000000000000
#044371:0000000000000013
#0453b1:0023000000000000
#045371:0000001300000000
#0453b1:0000000000230000
#045350:0000000000130000
#045320:00000023
#0453b1:00000013
#045381:0000000000000023
#045350:0000000000000013
#046320:23
#046360:0000001300000000
#046320:0000000000230000
#046381:0000000000130000
#0463b1:00000023
#046320:00000013
#046350:0000000000000023
#046381:0000000000000013
#0473b1:23
#048371:0013
#0483b1:000000000000000000000000000000000023000000000000
#048320:0013
#048360:000000000000000000000000000000000023000000000000
#048360:0000000000000013
#049320:53
#049360:0023000000000000
#0483b1:0000000000000013
#049371:53
#0493b1:0023000000000000
#050321:1323000000000000
#0503b1:0000132300000000
#050361:0013
#050321:000000000000000000000000000000000023000000000000
#0503b0:0013
#050370:000000000000000000000000000000000023000000000000
#050370:0000000000000013
#0513b0:53
#051370:0023000000000000
#050321:0000000000000013
#051361:53
#051321:0023000000000000
#0543b1:13
#054371:0023
#054320:0013
#055360:23
#057370:12220000
#059360:0000000000130000
#059340:00000033
#059320:0000000000000023
#0593b1:0000000000130000
#059391:00000033
#059371:0000000000000023
#061371:0000000000130000
#061391:00000033
#0613b1:0000000000000023
#061320:0000000000130000
#061340:00000033
#061360:0000000000000023
#0633b0:0000000000130000
#063390:00000033
#063370:0000000000000023
#063361:0000000000130000
#063341:00000033
#063321:0000000000000023
#065321:0000000000130000
#065341:00000033
#065361:0000000000000023
#065370:0000000000130000
#065390:00000033
#0653b0:0000000000000023
