This file was generated by Ched 2.7.0.0.
#TITLE ""
#ARTIST ""
#DESIGNER ""
#DIFFICULTY 0
#PLAYLEVEL
#SONGID ""
#WAVE ""
#WAVEOFFSET 0
#JACKET ""
#REQUEST "ticks_per_beat 480"
#00002: 4
#BPM01: 135
#00008: 01
#TIL00: ""
#HISPEED 00
#MEASUREHS 00
#00012:0000002300001300
#0001b:1300000000000013
#00018:00130013
#00015:0023000000000013
#0341b:00130000
#03415:0000001300000000
#03418:00000013
#03412:0000000000000013
#03712:000000000014
#03718:000000000000000000000000000000000000000000000014
#03814:000014000000000000000000000014000000000014000014
#0381a:000000000014000000000000000000000014000000000000
#03812:001400
#03818:000000000000000000000014000000000000000000140000
#03918:1400000000000013
#03915:0000001300001300
#0411b:0000001300000000
#04116:0013
#04119:0000000000130000
#04114:00000013
#04117:0000000000000013
#04110:41
#02018:0000130013000013
#0201b:2300001300000000
#02015:0013000000130000
#02012:23000013
#02115:1313
#0211b:0013000000130000
#02118:0000001300000013
#02112:00130013
#02614:14
#0261b:0023130000000000
#02615:0000002313000000
#02618:0000000000231300
#02612:0000000000000023
#04918:0000001300000000
#0491b:1300000013000013
#04915:1300000000130013
#04912:00000013
#05418:0013001300001300
#05415:0000130000130000
#0541b:0000000000000013
#05412:0013
#05410:41
#0581b:13001313
#05812:00130000
#05814:000000000014
#05818:0023000000000024
#05815:0000002300230000
#0621b:13
#06215:0000130000230000
#06212:0000002300001300
#06218:000000230000000000000000130000000000000014000000
#06214:0000000000000024
#0631b:1300000000230000
#06315:00130000
#06318:0023000013000000
#06312:0000002300000000
#00314:000000000000000000000014000000000000000000140000
#00318:000000230000000000000000000014000000000014000000
#00312:130000000000000000000000000000000014000000000000
#00315:00130000
#0031b:0000002300000000
#00818:13131300
#00815:0023002300001300
#0081b:0000000000230023
#00812:0000000000230023
#00810:41
#02518:000000000000000000000000000000000000000014000014
#02514:0000130000000014
#02512:13000013
#02517:0013000000000000
#02519:0000001300000000
#02516:0013
#0251b:0000000000130000
#02712:1313
#02715:00130013
#0271b:0023000000230000
#02718:0000002300000023
#0311b:1300001300000000
#03112:0023130000001300
#03118:0000000013000023
#03115:0000000000130000
#03110:41
#0321b:0013
#03215:000000000013
#0321f:11
#03214:0024002400000000
#03218:0000240000330000
#04018:0000230000000013
#04012:0000002300000013
#04015:0023000000000000
#0401b:23
#0401f:21
#04615:2300001300000000
#04618:00000013
#04612:0000000000000013
#0461b:0023000000000000
#04818:0024000013000013
#04812:0000260013000013
#04814:24
#0521b:1313
#05212:00130013
#05215:0023000000230000
#05218:0000002300000023
#0531b:1300002300000023
#05312:0000130000230000
#05315:0023002300000023
#05318:0000000000230000
#05614:0012
#05616:0000000000120000
#05618:0000001200001200
#05912:13
#05915:00131300
#05918:0023002300000000
#0591b:0000000000230000
#0011b:0000002300001300
#00112:1300000000000013
#00115:00130013
#00118:0023000000000013
#00212:0000002300001300
#0021b:1300000000000013
#00218:00130013
#00215:0023000000000013
#00412:0000002300001300
#0041b:1300000000000013
#00418:00130013
#00415:0023000000000013
#00714:000000000000000000000014000000000000000000140000
#00718:000000230000000000000000000014000000000014000000
#00712:130000000000000000000000000000000014000000000000
#00715:00130000
#0071b:0000002300000000
#0051b:0000002300001300
#00512:1300000000000013
#00515:00130013
#00518:0023000000000013
#00612:0000002300001300
#0061b:1300000000000013
#00618:00130013
#00615:0023000000000013
#00918:13131300
#00915:0023002300000000
#00912:0000000000240000
#00916:00000024
#0091a:0000000000000024
#01015:13131300
#01018:0023002300001300
#01012:0000000000230023
#0101b:0000000000230023
#01115:13131300
#01118:0023002300000000
#0111a:0000000000240000
#01116:00000024
#01112:0000000000000024
#01218:0000130013000023
#0121b:1300000000230000
#01215:0023000000231300
#01212:0000002300000023
#01318:1313
#0131b:00130000
#01315:0023002300000000
#01312:0000000000240000
#01316:00000024
#0131a:0000000000000024
#01415:0000130013000023
#01412:1300000000230000
#01418:0023000000231300
#0141b:0000002300000023
#01515:1313
#01512:0000130000000024
#01518:0023002300000000
#0151a:0000000000240000
#01516:00000024
#01615:0000001300130000
#0161b:0013
#01618:00130013
#01612:0013000000000013
#0161a:24
#01610:41
#01718:13001313
#01715:0013001300000013
#0171b:00130000
#01712:0000000000130000
#01918:000000000000130000230000000000000024000000000000
#01915:0023000000000000
#02416:0013000000000000
#02419:00130000
#02414:0000001300000000
#02417:0013
#02412:0000000000130000
#0241b:23000013
#02415:0000000000000013
#02410:41
#03018:1400002313000000
#03012:0023130000000000
#03015:0000000000231300
#0301b:0000000000000023
#02914:000000000000000000130000000000000000000014000014
#02918:0000000000000014
#0291b:13000013
#02916:0013000000000000
#02919:00130000
#02917:0013
#02912:0000000000130000
#02812:13000013
#02817:0013000000000000
#02814:00130000
#02819:0000001300000000
#02816:0013
#0281b:0000000000130000
#02818:0000000000000013
#03318:0013
#03312:0000000000000013
#0331b:0000000000330000
#03515:0000001300000000
#03612:0013
#03618:0024002400000000
#03614:00240000
#03615:0000000000330000
#04312:0000001300000000
#04317:0013
#04314:0000000000130000
#04316:0000000000000013
#04319:00000023
#04512:00000013
#04518:0000000000000013
#0451b:0000001300000000
#0471b:0000001300000013
#04718:0013
#04715:0000000000130000
#04712:00000013
#05115:0000001300000000
#05112:1300000013000013
#05118:1300000000130013
#0511b:00000013
#06012:13001313
#0601b:00130000
#06018:000000000000000000230000000000230000000014000000
#06015:0023000000000000
#06014:0000000000000024
#0611b:13
#06118:00131300
#06115:0023002300000000
#06112:0000000000230000
#06512:1300000000230000
#06518:00130000
#06515:0023000013000000
#0651b:0000002300000000
#02315:0000132300000000
#02318:0023000000000000
#02314:000000000000000000000000000000000024000000000000
#05015:0000000013000013
#0501b:0000000013000013
#05018:0024002400000000
#05014:24240000
#04215:0000230000000013
#0421b:0000002300000013
#04218:0023000000000000
#04212:23
#04418:0000230000000013
#04412:0000002300000013
#04415:0023000000000000
#0441b:23
#06412:13
#06418:0000130000230024
#0641b:0000002300001300
#06414:000000000014
#06415:0023000013000000
#06618:26
#01812:000000000000000000000000000000000024000000000000
#01815:000000000000000000000000000000000000000034340034
#05715:0000000022222200
#05719:0000000022222200
#05512:0000002300000023
#05518:0000002300000023
#05515:0000000000230000
#0551b:0000000000230000
#0221a:000000000000000000000000000000000024000000000000
#02217:000000000000000000000000000000000000000034340034
#03158:0000000000000013
#06658:16
#00354:000000000000000000000014000000000000000000000000
#00358:000000000000001400000000
#00352:000000000000000000000000000000000014000000000000
#03758:000000000000000000000000000000000000000000000014
#0375b:0000000000130000
#0385a:000000000014000000000000000000000014000000000000
#03858:000000000000000000000014000000000000000000000000
#04058:0000000000000053
#04052:0000000000000053
#0415b:0013000000000000
#04155:0013000000000000
#04655:0000006300000000
#04652:0000000000000053
#04852:0000160053000063
#04858:0000000053000063
#0535b:0000001300000013
#05355:0000001300000013
#05352:0000000000130000
#05358:0000000000130000
#0325b:0053
#0495b:23
#04958:0033000000000000
#04955:23
#04952:0033000000000000
#00754:000000000000000000000014000000000000000000000000
#00758:000000000000001400000000
#00752:000000000000000000000000000000000014000000000000
#01852:000000000000000000000000000000000054000000000000
#0275b:0013000000130000
#02758:0000001300000013
#03358:0053
#03352:0000000000000063
#03455:0000005300000000
#03452:0000000000000063
#03555:0000005300000000
#03652:0063
#03958:54
#03955:0000005300000000
#0455b:0013005300000000
#04555:0013000000000000
#0545b:0000000000000053
#05552:0000001300000013
#05558:0000001300000013
#05555:0000000000130000
#0555b:0000000000130000
#0225a:000000000000000000000000000000000064000000000000
#05055:0000000063000053
#0505b:0000000063000053
#05152:23
#05158:23
#05155:0043000000000000
#0515b:0043000000000000
#04255:0000000000000063
#0425b:0000000000000063
#04352:0013000000000000
#04358:0013000000000000
#04458:0000000000000053
#04452:0000000000000053
#0003a0:000000000000000000000014000024000000000000000000
#001320:000000000000000000000014000024000000000000000000
#0023a0:000000000000000000000014000024000000000000000000
#0043a0:000000000000000000000014000024000000000000000000
#005320:000000000000000000000014000024000000000000000000
#0063a0:000000000000000000000014000024000000000000000000
#018380:13
#0183b0:0023000000000000
#018350:00130000
#018320:0000002300000000
#0183b0:0013
#018380:0000000000230000
#018320:000000000000000000000000000000000014000000000000
#018350:000000000000000000000000000000000000000034340034
#019350:24
#019350:0013
#019320:0000000000230000
#019380:000000000000000000000000000000000014000000240000
#022350:13
#022320:0023000000000000
#022380:00130000
#0223b0:0000002300000000
#022320:0013
#022350:0000000000230000
#0223a0:000000000000000000000000000000000014000000000000
#022370:000000000000000000000000000000000000000034340034
#023370:24
#023380:0013
#0233b0:0000000000230000
#023340:000000000000000000000000000000000014000000240000
#0323b0:0013
#032380:000000000000000000000000000000330023000000000000
#0323b0:000000000000000000000000000000000000000000000013
#0333b0:000033000000000000000000000000330023000000000000
#0333a0:000000330033000000000000000000000000000000000000
#033390:000000333300000000000000
#033380:000000000000000000330033330000000000000000000000
#033320:0000000000000013
#034350:0023000000000000
#034350:0000001300000000
#034320:0000000000230000
#034320:0000000000000013
#035350:0033003300000000
#035320:00330023
#036320:0013
#036350:000000000000000000000000000000330023000000000000
#036380:0000000000000013
#0373b0:0033003300230000
#037380:00333300
#039380:14
#0393a0:00240000
#039350:0000001300000000
#039320:0000000000230000
#040350:0013
#040320:000000000000000000000000000000000023000000000000
#0403b1:0013
#040381:000000000000000000000000000000000023000000000000
#040381:0000000000000013
#0413b1:0023000000000000
#040320:0000000000000013
#041350:0023000000000000
#042380:0013
#0423b0:000000000000000000000000000000000023000000000000
#042321:0013
#042351:000000000000000000000000000000000023000000000000
#042351:0000000000000013
#043321:0023000000000000
#0423b0:0000000000000013
#043380:0023000000000000
#044350:0013
#044320:000000000000000000000000000000000023000000000000
#0443b1:0013
#044381:000000000000000000000000000000000023000000000000
#044381:0000000000000013
#0453b1:0023000000000000
#044320:0000000000000013
#045350:0023000000000000
#0453b0:0000001300000000
#045380:0000000000230000
#046350:0000001300000000
#046320:0000000000230000
#046320:0000000000000013
#047350:00230000
#048320:0013
#048350:000000000000000000000000000000000023000000000000
#048381:0013
#0483b1:000000000000000000000000000000000023000000000000
#048381:0000000000000013
#0493b1:53
#049381:0023000000000000
#048320:0000000000000013
#049350:53
#049320:0023000000000000
#0503b0:0013
#050380:000000000000000000000000000000000023000000000000
#050351:0013
#050321:000000000000000000000000000000000023000000000000
#050351:0000000000000013
#051321:53
#051351:0023000000000000
#0503b0:0000000000000013
#051380:53
#0513b0:0023000000000000
#0543b0:0000000000000013
#055380:00230000
#0563a0:0000000000000012
#0573a0:00220000
#0593b0:0000000000130000
#059390:00000033
#059370:0000000000000023
#061320:0000000000130000
#061340:00000033
#061360:0000000000000023
#0633b0:0000000000130000
#063390:00000033
#063370:0000000000000023
#065320:0000000000130000
#065340:00000033
#065360:0000000000000023
