This file was generated by Ched 2.7.0.0.
#TITLE ""
#ARTIST ""
#DESIGNER ""
#DIFFICULTY 0
#PLAYLEVEL
#SONGID ""
#WAVE ""
#WAVEOFFSET 0
#JACKET ""
#REQUEST "ticks_per_beat 480"
#00002: 4
#BPM01: 135
#00008: 01
#TIL00: ""
#HISPEED 00
#MEASUREHS 00
#00012:000000000000000000000013000013000013000000000000
#00019:0000000000000013
#00014:000000000013
#00016:000000000000000000000000000000000000000000000013
#00017:13130013
#0001b:0023002300000000
#03312:000000000000130000000013000000130000000000130000
#0331b:000000130000000000130000000000000023000000130000
#03318:001300001300000000000000
#03315:000000000013000000000000000000000000000000000000
#03316:000000000000000000000000130000000023000000000000
#03317:000000000000000000000000000000000000000000000013
#03618:0013
#0361b:000000130000000000130000000000000013000000130000
#03615:000000000000000000000013000000000000000000130000
#03617:13130000
#03616:000000230000000000230000000000000013000000000000
#03612:2300230000230000
#03715:000000000013
#03718:0000000000000013
#03712:000000000000000000000000000000000000000000000016
#0381b:001300000000001300000000
#03815:000000130000130000000000000000130000130000000013
#03818:130000000016000000130000130000000016000000130000
#03812:000000000000000013000016000000000000000013000000
#03918:000000000013000000000013000000000000000000000000
#0391b:131300130000000000000000
#03915:0013001300000000
#03912:0000130000000000130000002c0000240000240000000000
#0391a:0000000000242400
#04112:0000131300000000
#04114:0013
#04116:1300000000130000
#04118:0000000000001313
#04115:000000000000000000000000000000000000000013000013
#0411b:130000000000130000000000000000000013000000000000
#04117:000000000000000000000013000000000000000000000000
#04119:000000000000001300000000
#04110:41
#0431b:0000131300002300
#04318:000000000000000000000000130000000013000000130000
#04315:000000000000000000000013000000130000000013000000
#04312:130000130000001300230000
#04317:13
#00317:000000000000000000000013000000000013000000000000
#00312:000000230000130000000013000000000013000000000000
#0031b:000000000000001300000000
#00318:000000000013
#00315:000000000000000000000000000000000000000000130013
#00316:130000000000000000230000000013000000000000000000
#01816:1313000013130000
#01817:0000131300000000
#01819:13
#01812:000000000000000000000000000000000023000000000000
#0181b:000000000000000000000000000000000023000000000000
#01912:000000000000130000230000000000000023000000000000
#01916:00130000
#01918:0013
#01915:0013
#0191b:000000230000000000230000000000000023000013130000
#01917:0023000000000000
#0201b:230000000000130000130000000000000013000000000000
#02018:000013000013
#02019:0013
#02014:000000000000001300000000
#02017:0000000000130000
#02012:230000130000000000000000000000000013000000130000
#02015:000000000000000000000000000000000000000000000013
#02016:000000000000000000000013000000000000000000000000
#0211b:13131313
#02117:000013000000000000000013000000000000000000000000
#02112:0013001300130013
#02116:000000000013000013000000000000000000000000000000
#02115:000000000000000000000000000013000000000000000013
#02118:000000000000000000000000000000000013000013000000
#02412:000000000000000000000000130000000013000000000000
#02417:001300000000001300000000
#02414:000000000013000000000000000000130000000000000000
#0241b:230000000000000000000000000000000013000000000000
#02418:000000000013
#02415:000000000000000000000000000000000000000000130013
#02419:001300
#02410:41
#0281b:000000000000000000000000130000130013000000000000
#02817:000000120012000000120012000013000000000000000000
#02815:000000000000000000000000000000000013000000000000
#02812:001200001200000000001300
#02816:0000000000000013
#0281c:12120000
#02818:000000000000000000000000000000000000000000000013
#03012:13131313
#0301b:13131313
#03016:0023000000000023
#03019:0023000000000000
#03017:0000002300230000
#03014:0000002300000000
#0301a:0000000000230000
#03013:0000000000000023
#04715:000012000000000000120000000000130000130000000000
#04717:0012120000000000
#0471b:000000000000000012000000130000000000000000130000
#04718:000000000000001300001300
#04719:000000000012000000000000000000000000000000000000
#04713:000000000000000000000012000000000000000000000000
#04712:230000000000000000000000000000000013000000000013
#04918:000000000000000000130000000013000013000013000013
#0491b:00131300
#04915:000000000000000013000013000000130000000000130000
#04912:13130013
#04916:13
#05312:132c002413000024
#0531b:13130013
#05315:001600000000000000000000
#05316:0000132400241324
#05317:0013
#0531a:0000000000240000
#05412:0013001300000000
#05415:13130000
#0541b:0000000000130013
#05418:00000013
#05410:41
#0551b:0013000000130000
#05518:130013000000130000000013000013000000130000000013
#05512:0000001300000013
#05515:000000000013000013000000130000000013000013000000
#0121b:1300132313000000
#01215:000013000000000000230000000013000000000000230000
#01212:1323130013230000
#01218:000000230000000013000000000000230000000013000000
#01312:0000130000230000
#01318:000000131300000000000000
#01315:000000000000000000230013000000140000000000000000
#01317:13000014
#01319:0000000000000014
#01314:00000023
#0131b:0023002300000000
#01316:0000000000000023
#00216:000000000000000000000013000000000013000000000013
#00212:000000000000000000000000000013000000000000130000
#0021b:0023130000001300
#00217:130000000000000000230000000000000000000013000000
#0041b:000000000000000000000013000000000000000000130000
#00418:000000000000001300000000
#00412:13130013
#00416:000000000000000000000000000000000014000014000014
#00415:0023002300000000
#00612:130000230000000000000013000013000000000013000000
#00616:0000000000001414
#0061b:000000000000000000230000000000000013000000000013
#00617:00130000
#00718:000000000000000000000000000000000000000013000013
#00715:0000000000000013
#00716:000000000000130000000013000000000013000000000000
#0071b:130000230000000000000013000000000013000000000000
#00712:000000000000000000230000000013000000000000000000
#00717:000000000000001300000000
#00812:1323132300230023
#00817:000000000000130000000000000000000013000000000000
#00816:0013
#00815:000000000013
#0081b:1323002313230023
#00810:41
#00917:13
#00915:000000000000130000000013000000000000000000000000
#0091b:0023002313000000
#00918:000000001300000000130000
#00912:1323002313240000
#00916:0000000000130024
#0091a:0000000000000013
#00914:00000024
#01612:23130000
#01618:000000001200001200001200
#01614:0000001200120012
#0161a:000000000000000000000012000000000012000000000000
#01616:00001212
#0161c:000000000000000000000000000000000000000000000012
#01615:0013000000000000
#0161b:23
#01610:41
#01718:120000000012000000000000120000000012000000000000
#0171a:001200000000001200000000
#01716:000000120000000012000000000000120000000012000000
#01714:00120012
#01712:0000001200000012
#0171c:000000000000000000000012000000000000000000000012
#0261b:13130013
#02612:1313
#02615:00130013
#02618:0013
#02619:0023000000230000
#02616:0023000000230000
#02614:0000002300000023
#02617:0000002300000023
#02712:1323000000230000
#02719:00131313
#02714:00131313
#02718:13
#02716:0024002400240024
#0271b:0000002300000023
#0311b:1300131300000000
#03112:1300130000000023
#03115:0023000000000000
#03118:0023000000000000
#03110:41
#03216:1300130000130000
#03212:000000130000000000130000130000000000000000130013
#0321b:230000000000230000000000130013000000000000000013
#03214:000000000000000000000000000000000013000000000000
#03217:000000230000000000230000000000000000000013000000
#03219:00000013
#0321f:11
#0351b:000000000000000000000000000000130000000013000000
#03517:000000000000000000000000000000000000130000130013
#03515:13
#03518:000000130000000000000013130000000000000000000000
#03516:000000131300000000000000
#03512:0013000013001300
#04012:0000230000000013
#04017:0023000000000013
#0401b:230000000000000000000000000000000013000000000000
#04016:000000000000000000230000000000000013000000000000
#0401f:21
#04416:000000000000230000000000000000000013000000000000
#0441b:000000230000000000000000000000000013000000000000
#04417:2300000000000013
#04412:0000002300000013
#04512:0000001300000000
#04515:0000001300000000
#0451b:13
#04516:13
#0461b:0023001300000000
#04618:0000001300000000
#04615:23
#04612:0023000000000000
#04817:0000000000000013
#0481b:0000000000000013
#04819:2222250000000000
#04815:2222000000000000
#04812:00250000
#0521b:1313
#05212:0026130000291300
#05215:000016000000000016000000130016000000000016290000
#05218:0000002600001300
#05612:12
#05614:0012000000000000
#05616:000000120012120000000000
#05618:000000000000000000120012000000000000000000000000
#05613:000000000000000000000000000000120012000000000000
#05617:000000000000000012120012
#0561b:000000000000000000000000000000000000000000120012
#0561a:0012000000000000
#0561c:00120000
#0011b:000000000000000000000013000013000013000000000000
#00114:0000000000000013
#00119:000000000013
#00117:000000000000000000000000000000000000000000000013
#00116:13130013
#00112:0023002300000000
#00512:000000000000000000000013000000000000000000130000
#00515:000000000000001300000000
#0051b:13130013
#00516:000000000000000000000000000000000014000014000014
#00518:0023002300000000
#0101b:1323132300230023
#01016:000000000000130000000000000000000013000000000000
#01017:0013
#01018:000000000013
#01012:1323002313230023
#01116:1300000000000024
#01118:000000000000130000000013000000000000240000000000
#01112:0023002313000000
#01115:000000001300000000130000
#0111b:1323002313000000
#01117:0000000000130000
#01113:0000000000000013
#0111a:0000000000240000
#01412:1300132313000000
#01418:000013000000000000230000000013000000000000230000
#0141b:1323130013230000
#01415:000000230000000013000000000000230000000013000000
#0151b:0000130000230000
#01515:000000131300000000140000
#01518:000000000000000000230013000000000000000000000000
#01516:13
#01517:0000000000140023
#01513:0000000000000014
#01519:00000023
#01512:0023002300000000
#02217:1313000013130000
#02216:0000131300000000
#02214:13
#0221b:000000000000000000000000000000000023000000000000
#02212:000000000000000000000000000000000023000000000000
#0231b:000000000000130000230000000000000023000000000000
#02317:00130000
#02315:0013
#02318:0013
#02312:000000230000000000230000000000000023000013130000
#02316:0023000000000000
#0251b:000000000000000000000000130000000013000000000000
#02516:001300000000001300000000
#02519:000000000013000000000000000000130000000000000000
#02512:130000000000000000000000000000000013000000000000
#02515:000000000013
#02518:000000000000000000000000000000000000000000130013
#02514:001300
#02912:120000000000120000000000130000130013000000000000
#02916:000000000000001300000000
#02918:000000000000000000000000000000000013000000000000
#0291b:000000000013
#02917:000000120012000000120012000000000000000000130000
#0291c:001200001200000000000000
#02915:000000000000000000000000000000000000000000000013
#03414:13
#0341b:0013001300130013
#03416:000000000013000000000013000000000000000000000000
#03419:00130000
#03412:0013001300130013
#03413:0013
#03417:000000000000000000000000000000000013000000000000
#0341a:00000013
#03418:000000000000000000000000000000000000000000000013
#0421b:0000230000000013
#04216:0023000000000013
#04212:230000000000000000000000000000000013000000000000
#04217:000000000000000000230000000000000013000000000000
#05016:0000000000000013
#05012:0000232300000013
#0501b:2323000000000000
#0511b:13130013
#05117:13
#05115:000000000000000000130000000013000013000013000013
#05112:00131300
#05118:000000000000000013000013000000130000000000130000
#05812:1323130013230000
#05817:000013230000000000000000000013230000000000000000
#0581b:1300132313000000
#05816:000000000000000013230000000000000000000000000000
#05815:000000000000000000000000000000000000000013290000
#0591b:00130000
#05918:000000000000000013230013000000260000000000130000
#05916:13
#05915:0000130000132600
#05912:000000230000000000230013000000000000000000260000
#0571c:0000120000220000
#05712:00002222
#05717:0000000022222200
#0601b:1323130013230000
#06016:000013230000000000000000000013230000000000000000
#06012:1300132313000029
#06017:000000000000000013230000000000000000000000000000
#06018:000000000013
#06112:0000130000260000
#06115:000000000000000013230013000000000000260000130000
#06117:13
#06118:0000130000130026
#0611b:000000230000000000230013000000000000000000000000
#06212:1323132713230000
#06217:000013270000000000000000000013270000000000000000
#0621b:1300132313000000
#06216:000000000000000013000000000000000000000013280000
#0631b:13130000
#06318:000000000000000016000013000000260000000000120000
#06315:00130000
#06312:000000000000000000290013000000000000000000260000
#06316:0000000000120000
#06317:0023000000000000
#06314:00000028
#0641b:1323130013230000
#06416:001300000000001300000000
#06412:1327132313270028
#06417:000000000000000013270000000000000000000013000000
#06512:130000000000130016000000000000260000000000000000
#06515:000000000000000000290013000000000000000000000000
#06518:0000130000120026
#0651b:000000000000000000000013000000000000000000000000
#06516:0023000000000012
#06514:00000028
#06612:2c
#03152:0000000000000013
#02752:0013000000130000
#0275b:0000001300000013
#02756:0044003400440034
#03356:0053
#03752:000000000000000000000000000000130000000000000016
#03758:0000000000130000
#03655:0000000000000023
#03658:0053
#0365b:0000000000000023
#03858:000000000016000000000000000000000016000000000000
#03852:000000000000000000000016000000000000000000000000
#04052:0000130000000053
#04057:0000000000000053
#0405b:13
#04457:4300000000000053
#04456:00330000
#04452:0000000000000053
#04555:0000005300000000
#04557:0033000000000000
#0455b:23
#04556:23
#04552:0033000000000000
#04658:0000006300000000
#0465b:0043000000000000
#04652:0033000000000000
#04857:0000000000000053
#0485b:0000000000000053
#04852:00350000
#04859:00450000
#05258:0000001600000000
#05252:0016000000190000
#05255:0000000000000019
#05352:001c001400000014
#05356:0000004400340044
#0535a:0000000000140000
#04952:23
#04957:0043000000000000
#04956:23
#0495b:0043000000000000
#00057:00000013
#00059:0000000000000013
#00156:00000013
#00154:0000000000000013
#0025b:00000013
#00252:0000000000000013
#00452:00000013
#0045b:0000000000000013
#0055b:00000013
#00552:0000000000000013
#00656:0000000000001414
#00852:0033000000330000
#0085b:0000004300000043
#00952:0033000000000000
#0095b:0000004300000000
#0105b:0043000000430000
#01052:0000003300000033
#0115b:0043000000000000
#01152:0000003300000000
#01258:0013000000130000
#01255:0000001300000013
#01455:0013000000130000
#01458:0000001300000013
#01856:5353
#01857:00530000
#01958:0053
#01955:0063
#01952:000000000000000000000000000000000053000000000000
#02257:6363
#02256:00630000
#02355:0063
#02358:0053
#0235b:000000000000000000000000000000000053000000000000
#02052:0053000000000000
#02656:0013000000130000
#02657:0000001300000013
#03052:5353
#0305b:00630063
#03056:0013000000000013
#03057:0000001300130000
#03552:0053
#04156:23
#0415b:23
#04157:0033000000000000
#04152:0033000000000000
#0425b:0000130000000063
#04256:0000000000000063
#04252:13
#04352:23
#04357:23
#0435b:0043000000000000
#04356:0043000000000000
#05056:0000000000000063
#05052:0000000000000063
#0515b:23
#05157:23
#05156:0033000000000000
#05152:0033000000000000
#05852:0013000000130000
#0585b:0000001300000000
#05855:0000000000000019
#0605b:0013000000130000
#06052:0000001300000019
#06252:0013000000130000
#0625b:0000001300000000
#06256:0000000000000018
#0645b:0013000000130000
#06452:0000001300000018
#06652:3c
#0135b:0013000000000000
#01355:0000001300000000
#01552:0013000000000000
#01558:0000001300000000
#00352:000000000000000000000033000000000033000000000000
#0035b:000000000000004300000000
#0075b:000000000000000000000043000000000043000000000000
#00752:000000000000003300000000
#000320:13
#000360:0023000000000000
#000320:00130000
#000360:0000002300000000
#000370:000000000000000000000013000023000000000000000000
#0013b0:13
#001370:0023000000000000
#0013b0:00130000
#001370:0000002300000000
#001360:000000000000000000000013000023000000000000000000
#002320:13
#002360:0023000000000000
#002360:00130000
#002320:0000002300000000
#0023b0:000000000000000000000013000000000000000000000000
#002370:000000000000002300000000
#0033b0:13
#003370:0023000000000000
#003370:00130000
#0033b0:0000002300000000
#0043b0:13
#004380:0023000000000000
#0043b0:00130000
#004380:0000002300000000
#004320:000000000000000000000013000000000000000000000000
#004350:000000000000002300000000
#005320:13
#005350:0023000000000000
#005320:00130000
#005350:0000002300000000
#0053b0:000000000000000000000013000000000000000000000000
#005380:000000000000002300000000
#0063b0:13
#006370:0023000000000000
#006320:00130000
#006360:0000002300000000
#006370:000000000000000000000013000023000000000000000000
#007320:13
#007360:0023000000000000
#0073b0:00130000
#007370:0000002300000000
#012350:000000000000000000000000000000000013000023000000
#013320:13
#013360:0023000000000000
#014380:000000000000000000000000000000000013000023000000
#0153b0:13
#015370:0023000000000000
#016380:0013000000000000
#0163b0:00230000
#018360:13
#018320:0023000000000000
#018370:00130000
#0183b0:0000002300000000
#018360:0013
#018320:0000000000230000
#018320:000000000000000000000000000000000013000000000000
#019320:23
#0183b1:000000000000000000000000000000000000000013000033
#018371:0000000000000033
#019371:23
#019381:0013
#0193b1:0000000000230000
#019350:0013
#019320:0000000000230000
#019320:000000000000000000000000000000000013000000000000
#019370:0000000000000023
#020320:0013000000000000
#020360:00230000
#022370:13
#0223b0:0023000000000000
#022360:00130000
#022320:0000002300000000
#022370:0013
#0223b0:0000000000230000
#0223b0:000000000000000000000000000000000013000000000000
#0233b0:23
#022321:000000000000000000000000000000000000000013000033
#022361:0000000000000033
#023361:23
#023351:0013
#023321:0000000000230000
#023380:0013
#0233b0:0000000000230000
#0233b0:000000000000000000000000000000000013000000000000
#023360:0000000000000023
#024320:13
#024340:0023000000000000
#024371:0013000000000000
#024391:00230000
#024340:00130000
#024360:0000002300000000
#024391:0000001300000000
#0243b1:0023
#0253b1:13
#025391:0023000000000000
#025360:0013000000000000
#025340:00230000
#025391:00130000
#025371:0000002300000000
#025340:0000001300000000
#025320:0023
#030320:13
#030360:0023000000000000
#0303b0:00130000
#030370:0000002300000000
#030320:0013
#030370:0000000000230000
#0303b0:00000013
#030360:0000000000000023
#031320:000000000000000000130053005300330053005300230000
#031360:00003333
#0313b1:000000000000135353335300
#031371:0000000000330023
#033361:0013
#0333b1:0000000000230000
#0353b1:000000132300000000000000
#035321:0013
#035361:0000000000230000
#036381:0013
#0363b1:0000000000230000
#036351:0000000000000013
#037321:000000330000005300330000005300230000000000000000
#037351:000053330053330000000000
#0363b0:0000000000000013
#037380:000000330000005300330000005300230000000000000000
#0373b0:000053330053330000000000
#040360:135300000000000000000000
#040320:0023000000000000
#040370:000000135300000000000000
#0403b0:0000002300000000
#040360:0013
#040320:000000000000000000000000005300230000000000000000
#0403b1:0013
#040371:000000000000000000000000005300230000000000000000
#040321:0000000000000013
#041361:53
#041321:0023000000000000
#040370:0000000000000013
#0413b0:53
#041370:0023000000000000
#042370:135300000000000000000000
#0423b0:0023000000000000
#042360:000000135300000000000000
#042320:0000002300000000
#042370:0013
#0423b0:000000000000000000000000005300230000000000000000
#042321:0013
#042361:000000000000000000000000005300230000000000000000
#0423b1:0000000000000013
#043371:53
#0433b1:0023000000000000
#042360:0000000000000013
#043320:53
#043360:0023000000000000
#044320:13
#044360:005300230000000000000000000000000000000000000000
#0443b0:00130000
#044370:000000000000005300230000000000000000000000000000
#044360:0013
#044320:000000000000000000000000005300230000000000000000
#0443b1:0013
#044371:000000000000000000000000005300230000000000000000
#044371:0000000000000013
#0453b1:53
#045371:0023000000000000
#044320:0000000000000013
#045360:53
#045320:0023000000000000
#045350:0000001300000000
#0453b0:0000000000230000
#045381:0000000000130000
#045351:00000023
#0453b0:00000013
#045380:0000000000000023
#045351:0000000000000013
#046321:23
#046381:0000001300000000
#046321:0000000000230000
#046350:0000000000130000
#046380:00000023
#046321:00000013
#046351:0000000000000023
#046380:0000000000000013
#0473b0:23
#048370:000000000000000000000000130000000023000000000000
#0483b0:000000000000000000000000005300005300000000000000
#048321:000000000000000000000000130000000023000000000000
#048361:000000000000000000000000005300005300000000000000
#048371:0000000000000013
#049321:53
#049371:0023000000000000
#0483b0:0000000000000013
#049360:53
#0493b0:0023000000000000
#050320:13
#050360:005300230000000000000000000000000000000000000000
#0503b0:00130000
#050370:000000000000005300230000000000000000000000000000
#050360:000000000000000000000000130000000023000000000000
#050320:000000000000000000000000005300005300000000000000
#0503b1:000000000000000000000000130000000023000000000000
#050371:000000000000000000000000005300005300000000000000
#050361:0000000000000013
#0513b1:53
#051361:0023000000000000
#050320:0000000000000013
#051370:53
#051320:0023000000000000
#0543b0:13
#054380:005300330000000000000000000000000000000000000000
#0543a0:000053330000000000000000
#054370:000000000000005300330000000000000000000000000000
#054390:000000000053230000000000
#054321:0013
#054351:000000000000000000000000005300330000000000000000
#054331:000000000000000053330000
#054361:000000000000000000000000000000000000005300330000
#054341:000000000000000000000053
#055341:23
#057371:12000052000000000000000000000000220000000000000000000000000000000000000000000000000000000000000000000000000000000000000000000000
#057361:00520000000000000000000000000000000000000000000000000000000000000000000000000000000000000000000000000000000000000000000000000000
#057381:0052000000000000000000000000000000000000000000000000000000000000
#058371:000000000000000000000000000000000013000000000000
#0583b1:000000000000000000532300
#0593b1:135300000000000000000000
#059371:0023000000000000
#060361:000000000000000000000000000000000013000000000000
#060321:000000000000000000532300
#061321:135300000000000000000000
#061361:0023000000000000
#062371:000000000000000000000000000000000013000000000000
#0623b1:000000000000000000532300
#063361:135300000000000000000000
#063321:0023000000000000
#064361:000000000000000000000000000000000013000000000000
#064321:000000000000000000532300
#065371:135300000000000000000000
#0653b1:0023000000000000
