This file was generated by Ched 2.7.0.0.
#TITLE ""
#ARTIST ""
#DESIGNER ""
#DIFFICULTY 0
#PLAYLEVEL
#SONGID ""
#WAVE ""
#WAVEOFFSET 0
#JACKET ""
#REQUEST "ticks_per_beat 480"
#00002: 4
#BPM01: 135
#00008: 01
#TIL00: ""
#HISPEED 00
#MEASUREHS 00
#0091a:14
#00918:0014
#00912:00140000
#01112:14
#01114:0014
#0111a:00140000
#01014:14
#01018:0014
#0121a:14
#01212:0014
#01318:14
#0131a:0014
#01314:00140000
#01412:14
#0141a:0014
#01514:14
#01512:0014
#01518:00140000
#02112:14
#02114:0014
#02118:00000014
#0211a:00140000
#0201a:14
#02018:0014
#02012:00140000
#04018:0014
#04012:00140000
#04014:00000014
#0401a:24
#0401f:21
#0421a:00140000
#04214:0014
#04218:00000014
#04212:14
#0451a:14
#04518:0014
#04514:00000014
#04512:00140000
#00814:0014
#00818:24
#00810:41
#0181a:14140000
#01912:14140000
#02212:14140000
#0231a:14140000
#03214:1414
#03218:00140014
#0321f:11
#03312:14
#0331a:00140000
#03319:0014
#03313:0014
#04412:00140000
#0441a:14
#04414:00000014
#04418:0014
#0001a:1414
#00114:1414
#00218:1414
#00312:1414
#05514:00140000
#05512:24
#00612:14
#00614:0000000000000014
#00613:0034
#0041a:14
#00418:00003414
#0251a:14
#02512:00140000
#02514:00000014
#02518:0014
#02412:14
#02414:0014
#0241a:00140000
#02410:41
#02912:14
#02918:00140000
#0291a:00000014
#02914:0014
#02818:0014
#02814:00140000
#0281a:14
#03818:00000014
#03814:0014
#0381a:00140000
#03812:14
#03618:1414
#03614:00140014
#0371a:14
#03712:00140000
#03713:0014
#03719:0014
#05912:14
#05914:0014
#0591a:00140000
#0611a:14
#06118:0014
#06112:00140000
#06018:14
#06014:0014
#06212:14
#0621a:0014
#06314:14
#06312:0014
#06318:00140000
#0641a:14
#06412:0014
#06518:14
#0651a:0014
#06514:00140000
#05818:0014
#05814:24
#0161a:14
#01610:41
#01712:14
#05418:00140000
#0541a:24
#05410:41
#04818:0014
#04814:00000014
#04812:26
#05018:00140000
#05014:0014
#0501a:00000014
#05012:14
#0531a:14
#05318:0014
#05312:00000014
#05314:00140000
#05214:00140000
#05218:0014
#05212:00000014
#0521a:14
#04918:14
#04914:00001414
#0491a:0000000000140014
#05114:14
#05118:00001414
#05112:0000000000140014
#05618:0000000000000014
#0561a:0000001434343400
#0261a:14140000
#02614:00001414
#02718:14140000
#02712:00001414
#03012:14140000
#03018:00001414
#03114:14140000
#0311a:00001414
#03110:41
#04618:16
#04612:0016000000000000
#04114:00001414
#04118:0000000000140014
#04110:41
#04318:00001414
#04314:0000000000140014
#0571a:00000024
#03912:24
#06612:25
#06619:25
#04712:0026
#04718:00000026
#00714:3434343434340000
#03419:00343400
#03513:00343400
#00518:34
#0575a:00000014
#04852:00160000
#05552:54
#05554:00240000
#00654:0000000000000024
#00652:64
#00458:00000024
#0045a:54
#03658:14
#03952:54
#03954:00000014
#0165a:54
#01752:64
#0545a:54
#05458:00240000
#04958:64
#05154:54
#0565a:0000006400000000
#05658:0000000000000064
#03254:14
#0043a0:14
#004380:00003454
#005380:34
#0053a0:0024
#006320:14
#006330:0034
#006340:0000000000000054
#007340:3434343434340000
#007320:00000024
#0163a0:14
#016380:00000024
#017320:14
#017340:00000024
#0183a0:00001424
#019320:00001424
#022320:00001424
#0233a0:00001424
#034380:14
#034390:00343400
#0343a0:00000024
#035340:14
#035330:00343400
#035320:00000024
#039320:14
#039340:0000000034342400
#0413a0:14240000
#043320:14240000
#0463a0:0000001400340000
#046390:00000034
#046380:0000000000000034
#047380:00240000
#048320:1636260000000000
#049380:14
#0493a0:00240000
#051340:14
#051320:00240000
#0543a0:1424
#054380:00540000
#055320:1424
#055340:00540000
#0563a0:1400003434343400
#056380:0000000000000034
#0573a0:0000000034342400
