This file was generated by Ched 2.7.0.0.
#TITLE ""
#ARTIST ""
#DESIGNER ""
#DIFFICULTY 0
#PLAYLEVEL
#SONGID ""
#WAVE ""
#WAVEOFFSET 0
#JACKET ""
#REQUEST "ticks_per_beat 480"
#00002: 4
#BPM01: 211
#00008: 01
#TIL00: ""
#HISPEED 00
#MEASUREHS 00
#04918:2616
#0491f:21
#04910:0000000000000041
#05018:16
#05112:1616
#05212:16
#05318:1616
#05412:1616
#05518:16
#05512:0016
#05618:16
#05718:0016
#05712:26
#05812:16
#05918:16
#05912:0016
#06018:16
#06112:1616
#06218:1616
#06312:16
#06318:0016
#06412:16
#0771a:14
#07814:14
#07918:14
#08012:14
#0811a:14
#08214:14
#08318:14
#0251a:14
#02612:14
#0271a:14
#02812:14
#02918:14
#02910:41
#03014:14
#03118:14
#03214:14
#0011a:14
#0021a:14
#00312:14
#00412:14
#00518:14
#00618:14
#00714:14
#00814:14
#0091a:14
#00910:41
#0101a:14
#01112:14
#01212:14
#01318:14
#01418:14
#01514:14
#01614:14
#0331a:14
#03412:14
#0351a:14
#03612:14
#03718:14
#03814:14
#03918:14
#03910:41
#04014:14
#0411f:11
#06918:26
#06912:0026
#06910:41
#07018:26
#07012:0026
#07312:26
#07318:0026
#07412:26
#07418:0026
#07118:26
#07512:26
#01910:41
#0173a0:14
#0183a0:24
#019320:14
#020320:24
#021380:14
#022380:24
#023340:14
#024340:24
#0413a0:14
#0423a0:24
#043320:14
#044320:24
#045380:14
#046380:24
#047340:14
#048340:24
#065380:1626
#066320:1626
#067380:1626
#068320:1626
#071380:1636
#072380:3626
#075320:1636
#076320:3626
#084320:1400000000240000
