This file was generated by Ched 2.7.0.0.
#TITLE ""
#ARTIST ""
#DESIGNER ""
#DIFFICULTY 0
#PLAYLEVEL
#SONGID ""
#WAVE ""
#WAVEOFFSET 0
#JACKET ""
#REQUEST "ticks_per_beat 480"
#00002: 4
#BPM01: 211
#00008: 01
#TIL00: ""
#HISPEED 00
#MEASUREHS 00
#00018:0000000013000013
#0001b:0000000000130000
#00012:0000000000130000
#00015:0000000000000013
#00118:0000131300000000
#00115:0000000000001313
#00218:0000000013000013
#0021b:0000000000130000
#00215:0000000000000013
#00212:00000013000000000000130000000000
#00312:0000130013130000
#00317:0000000013130000
#00316:0000000000000014
#0041b:0013130000000000
#00412:0000000000130000
#00415:00000013
#00418:0000000000000013
#00416:0013130000000000
#00518:00000013
#0051b:2300000000000013
#00515:0000000000000013
#00618:0013000000001313
#0061b:0000000000130000
#00615:0000000000000013
#00612:0013000000000000
#00718:0000130000130000
#0071b:0000000013000013
#00712:00130000000000000000130000000000
#00715:0013
#00716:0000000000000013
#00817:0013000000000000
#00819:13
#00812:0013000000130000
#00815:0000000013000013
#0081b:0000000000130000
#00818:0000000000000013
#01218:0000000000130013
#0121b:0013000000000000
#01216:0013000000000000
#01215:0000000013000013
#01312:00130000
#01315:0000000000001313
#01318:0000000000000013
#01418:00000013
#0141b:00130000
#01412:00000013
#0151b:1300001300130013
#01518:0013000013000000
#01512:0013001300130013
#01515:13
#0161b:0013000023230000
#01618:13
#01612:0013000023230000
#0171b:13000013
#01718:0000130000130013
#01712:13
#01815:0000130000130000
#01812:0013
#01818:00000013
#0181b:0000000000000013
#01917:1300000013131313
#0191b:00130000
#01912:1300000000001313
#01916:00130000
#01910:41
#02015:0013001300000013
#02018:00130013
#0201b:0013001300130000
#0221b:0013
#02218:0000130000130000
#02215:00000013
#02212:0000000000000013
#02415:0013001300000000
#02418:00130000
#0241b:0000000013130000
#02412:0000000013130000
#02512:23131313
#0251b:1313000000001313
#02517:0000001313000000
#02612:13131313
#02617:0013000000000000
#02615:0000000000130000
#02618:0000000013000013
#0261b:0000001300001300
#02712:23131313
#0271b:1300130000001313
#02718:0013000000000000
#02812:13131313
#02817:0013130000000000
#02815:0000000000130000
#0281b:0000000000000013
#02818:00000013
#02912:13
#02916:0000130000001313
#0291b:23131313
#02910:41
#03012:0013001300130000
#0301b:13131313
#03116:1300000013130013
#03112:00130000
#0311b:23131313
#03212:0023230013001300
#03215:0000000000130000
#03218:0000000000000013
#0321b:13131313
#03317:0000131300000000
#0331b:1300000000001313
#03312:23131313
#0341b:0013
#03418:0000000000130013
#03412:13131300
#03415:00000013
#03512:1313
#03516:0000130000001313
#0351b:23131313
#03612:0013001300001300
#03615:0000000013000013
#0361b:13131313
#03618:0000000000000013
#03715:0000130000000013
#03718:0000000013000013
#0371b:00130000000000000000000013000000
#03712:00000013
#0381b:00000013
#03818:00130000
#03812:00130000000000000000000000000000
#03815:0013
#03816:00000013
#03917:1300001300000000
#0391b:0013000000131300
#03912:0000001300131300
#03916:0013000000000000
#03910:41
#04015:1313000000001300
#04018:0000000000130000
#04012:0000000000000013
#0401b:0000001313000000
#0411b:0000131300000000
#04118:2300000000131300
#04116:0000131300000000
#0411f:11
#04217:0013
#04219:00000013
#04212:0013
#04214:00000013
#0441b:0000000013130000
#04418:00000013
#04415:0000000000130013
#04412:0013
#04518:0000131300000000
#04515:0000000000131300
#0451b:23000000000000000000000000130000
#04512:2300131300000000
#0461b:00001313
#04612:13001313
#04618:0000000000130000
#04615:0000000000000013
#04716:0000140000140000
#04718:0000000000000013
#0471b:2300002300002300
#04712:2300002300002300
#0481b:0000230013130000
#04815:1300000000000023
#04818:0013000000000013
#04812:0000230013130000
#04912:0000130000000013
#04918:0000001300000013
#04915:0000001300000000
#0491b:00000013
#0491f:21
#04910:0000000000000041
#0501b:0013000013000023
#05018:00000013
#05012:00000000001300000000000013001300
#05015:0013000000000000
#05118:0000130000000013
#0511b:0000001300000000
#05115:0000000000001313
#05112:0000001300000000
#0521b:00130000
#05218:0013000000001313
#05212:13000013
#05215:00130000
#05318:00130000
#05315:00000013
#05418:00130000
#05412:0000000000001313
#0551b:00130013
#05518:0000001300000013
#05512:0000000013000013
#05515:0000000000130000
#06417:0000131300000000
#0641b:0000000000001313
#06412:0000131300000000
#06416:0000000000001313
#0651b:13131313
#06512:23131313
#06518:0000001300130000
#06612:13131313
#06615:0000001300130000
#0661b:23131313
#06718:1300001313000000
#06715:0000130000131300
#06712:2323
#0671b:00230023
#06918:0000001300000013
#0691b:2323000000130000
#06915:0013
#06912:2323000000130000
#06910:41
#0701b:0013000000130000
#07015:1300001300000000
#07018:0013
#07012:0013000000000000
#07118:0013
#07112:0013
#0721b:1300000000000013
#07212:0013
#07215:0000000000130000
#07218:00000013
#08412:0013000000000000
#08415:00130000
#0841b:0013
#08418:0000000000130000
#00915:0000131300000000
#00918:0000000000001313
#00910:41
#01015:0000000013000013
#01012:0000000000130000
#01018:0000000000000013
#0101b:00000013000000000000130000000000
#0111b:00131300
#01116:0013
#01117:0000000000001313
#01112:0000000000001313
#02112:13000013
#02115:0000130000130013
#0211b:13
#02316:1300000013131313
#02312:00130000
#0231b:1300000000001313
#02317:00130000
#04312:0000131300000000
#04317:0000131300000000
#04315:0000000000131300
#0431b:23
#04316:23
#05612:0013130013130000
#0561b:0013130013130000
#05615:0000000000000013
#05618:0000000000000023
#0571b:0000130000000013
#05715:0000001300000013
#05718:0000001300000000
#05712:00000013
#05815:00130013
#0581b:0000000000001313
#05818:0013130013000000
#05812:0013001300000023
#05915:0000130000000013
#05912:0000001300000000
#05918:0000000000001313
#0591b:0000001300000000
#06012:00130000
#06015:0013000000001313
#0601b:13000013
#06018:00130000
#06312:00130013
#06315:0000001300000013
#0631b:0000000013000013
#06318:0000000000130000
#06818:0013000000130000
#06815:0000001300000013
#06812:23232323
#0681b:23232323
#07315:0000001300000013
#07312:2323000000130000
#07318:0013
#0731b:2323000000130000
#07412:0013000000130000
#07418:1300001300000000
#07415:0013
#0741b:0013000000000000
#07515:0013
#0751b:0013
#07612:1300000000000013
#0761b:0013
#07618:0000000000130000
#07615:00000013
#07715:1300000000130013
#07712:00130013
#07718:13
#07818:0000130000130013
#0781b:0013
#07815:00000000000000000000000013000013
#07912:1300130000001313
#07916:0013
#07914:0000000000130000
#0791b:13
#07917:0000130000001313
#08018:00001300000000130000000000001300
#08015:0000131313001300
#08012:0013000000130000
#0801b:00130000
#08118:1300000000130013
#0811b:00130013
#08115:13
#08215:0000130000130013
#08212:0013
#08218:00000000000000000000000013000013
#0831b:1300130000001313
#08317:0013
#08319:0000000000130000
#08312:13
#08316:0000130000001313
#06115:00130000
#06118:00000013
#06215:00130000
#0621b:0000000000001313
#00055:0000000000000053
#00158:0000005300000000
#00155:0000000000000053
#00252:00000023000000000000000000000000
#00258:0000000000000053
#00655:0000000000000053
#00752:00230000000000000000000000000000
#00852:0013000000000000
#00858:0000000000000063
#00955:0000006300000000
#00958:0000000000000063
#0105b:00000023000000000000000000000000
#01055:0000000000000063
#0135b:00130000
#01355:0000000000000063
#01258:0000000000000053
#01452:00130000
#0165b:0013000000000000
#01652:0013000000000000
#01752:53
#01758:0000530000000053
#01952:53
#01956:00530000
#02155:0000630000000063
#0215b:63
#0235b:63
#02357:00630000
#0275b:00530000
#02952:53
#02956:00530000
#03052:0000000000530000
#0335b:0000000000000053
#03658:0000000000000053
#0375b:00230000000000000000000000000000
#03755:0000130000000063
#03852:00230000000000000000000000000000
#03856:00000053
#03858:00130000
#0395b:00000053
#04156:0000005300000000
#04158:00000053
#04558:0000005300000000
#04555:00000053
#0455b:00000000000000000000000000230000
#04652:23
#04858:0000000000000053
#04855:0000000000000013
#04955:0000006300000000
#05055:0053000000000000
#05052:00000000002300000000000000005300
#0505b:0000000000000013
#0515b:0000005300000000
#05155:0000000000000053
#05252:23
#0525b:00130000
#05258:0000000000000013
#05452:0000000000000053
#0585b:0000000000000063
#05855:00530000
#05852:0000002300000013
#05952:0000006300000000
#05958:0000000000000063
#06052:00130000
#0605b:23
#06055:0000000000000013
#05655:0000000000000063
#05658:0000000000000013
#05758:0000005300000000
#0695b:0000000000130000
#0705b:0013000000130000
#07152:0063
#07158:0053
#0725b:53
#07352:0000000000130000
#07452:0013000000130000
#07555:0063
#0755b:0053
#07652:63
#07752:00630000
#07758:63
#07755:0000000000000063
#0795b:63
#07957:00630000
#0815b:00530000
#08155:53
#08158:0000000000000053
#08352:53
#08356:00530000
#04355:00000063
#04357:0000006300000000
#0625b:0000000000000063
#000350:0000000000000013
#001320:0000002300000000
#001381:0000001300000000
#0013b1:0000000000000023
#001350:0000000000000013
#002320:00000053000000000000000000000000
#002350:0023
#002380:0000000000000013
#0033b0:00230000
#005350:13230000
#005381:00132300
#005320:00001323
#006350:0000000000000013
#007320:00530000000000000000000000000000
#007350:00230000
#008380:0000000000000013
#0093b0:0000002300000000
#009351:0000001300000000
#009321:0000000000000023
#009380:0000000000000013
#0103b0:00000053000000000000000000000000
#010380:0023
#010350:0000000000000013
#011320:00230000
#012380:0000000000000013
#0133b0:00230000
#013350:0000000000000013
#014320:00230000
#017320:13
#017350:00230000
#017381:00130000
#0173b1:0023
#017350:00001333
#017320:0000000000330023
#017381:0000000000000013
#0183b1:00230000
#019321:1323
#019361:00330000
#0213b1:13
#021381:00230000
#021350:00130000
#021320:0023
#021381:00001333
#0213b1:0000000000330023
#021350:0000000000000013
#022320:00230000
#0233b0:1323
#023370:00330000
#0273b0:00130000
#027370:0023
#029320:1323
#029360:00330000
#030320:0000000000130000
#030360:0000000000000023
#0333b0:0000000000000013
#034370:00230000
#036380:0000000000000013
#0373b0:00530000000000000000000000000000
#037380:00230000
#037350:0000000000000013
#038320:00530000000000000000000000000000
#038350:00230000
#038360:00000013
#039320:23
#0393b0:00000013
#040380:23
#041360:0000001300000000
#042320:00230000
#041381:00000013
#0423b1:00230000
#043371:0000001300000000
#0443b1:00230000
#043350:00000013
#044320:00230000
#045380:0000001300000000
#0453b0:00000000000000000000000000530000
#046380:00230000
#045351:00000013
#046321:53
#046351:00230000
#048381:0000000000000013
#0493b1:00230000
#049351:0000001300000000
#049321:00000023
#050351:0013000023000000
#050321:00000000005300000000000000000000
#050321:0000000000000013
#051351:00230000
#0513b1:0000001300000000
#051381:00000023
#051351:0000000000000013
#052321:53
#052351:0023000000000000
#052321:0000000000000013
#053351:33330000
#053321:0000002300000000
#053380:0000001300000023
#0533b0:00003333
#053351:0000000000000013
#054321:33330000
#054351:0000002300000000
#0543b0:0000001300000023
#054380:00003333
#054321:0000000000000013
#055351:00230000
#056351:0000000000000013
#057321:00230000
#057381:0000001300000000
#0573b1:00000023
#058351:00132300
#058321:0000005300000000
#0583b1:0000000000000013
#059381:00230000
#059321:0000001300000000
#059351:00000023
#059381:0000000000000013
#0603b1:53
#060381:0023000000000000
#0603b1:0000000000000013
#061381:33330000
#0613b1:0000002300000000
#061350:0000001300000023
#061320:00003333
#061381:0000000000000013
#0623b1:33330000
#062381:0000002300000000
#062320:0000001300000023
#062350:00003333
#0623b1:0000000000000013
#063381:00230000
#070351:0000000000130000
#071321:0033
#072351:23
#071380:0013
#0723b0:33
#072380:0023
#074380:0000000000130000
#0753b0:0033
#076380:23
#075351:0013
#076321:33
#076351:0023
#077381:13
#0773b1:00230000
#077320:00130000
#077350:0023
#077381:00001333
#0773b1:0000000000330023
#077350:0000000000000013
#078320:00230000
#0793b0:1323
#079370:00330000
#081350:13
#081320:00230000
#0813b1:00130000
#081381:0023
#081350:00001333
#081320:0000000000330023
#081381:0000000000000013
#0823b1:00230000
#083321:1323
#083361:00330000
#084381:0013002300000000
#0843b1:00330000
#084320:0000001300230000
#084350:0033
