This file was generated by Ched 2.7.0.0.
#TITLE ""
#ARTIST ""
#DESIGNER ""
#DIFFICULTY 0
#PLAYLEVEL
#SONGID ""
#WAVE ""
#WAVEOFFSET 0
#JACKET ""
#REQUEST "ticks_per_beat 480"
#00002: 4
#BPM01: 211
#00008: 01
#TIL00: ""
#HISPEED 00
#MEASUREHS 00
#00018:0013
#0001b:0000000000000013
#00015:0000000000130000
#00115:0000130000000013
#00118:0000001300000000
#00218:0000000013000013
#00212:0000000000130000
#00318:0000000000130000
#00312:0013
#00315:0000000000000013
#0041b:0013000000000000
#00412:0000000000130000
#00418:00000013
#00415:0000130000000013
#0051b:2300000000000013
#00515:0000230000000013
#00618:0013000000000013
#0061b:0000000000130000
#00615:00000013
#00612:0013000000000000
#00718:0000000000130000
#00715:0013
#00712:0000000000000013
#0081b:0013000000000000
#00815:0013
#00812:0000000000000013
#00818:0000000000130000
#01218:0013000000130000
#01215:0000000013000013
#01212:0013000000000000
#0141b:00000013
#01412:00000013
#01518:1300001300000013
#01515:0013000000130000
#0161b:0013000000000000
#01612:0013000000260000
#01618:0026
#0171b:13
#01715:13
#01718:00130000
#01712:00130000
#01815:0000130000130000
#0181b:0013
#01818:00000013
#01812:0000000000000013
#01915:0000000000130000
#01918:00130013
#0191b:13
#01912:0000000000000013
#01910:41
#02015:00130013
#0201b:0000000000130000
#02018:0013001300000013
#02415:0013001300000000
#02418:00131600
#02412:0000000000160000
#02515:0000001300001300
#02518:0000130013000013
#0251b:13
#02512:23
#02618:0000000000130000
#02612:0013
#02615:00000013
#0261b:0000000000000013
#0271b:0000000000001313
#02715:0013
#02815:0013130000001300
#02818:0000000000130013
#02912:13
#02915:0000130000000013
#02918:00000013
#02910:41
#03018:0000000000130000
#03118:00130000
#03115:1300000013000013
#0311b:0000000013130000
#03112:00130000
#03215:0000000000130000
#0321b:0000000000000013
#03218:0013000013000000
#03212:0023230000000000
#03315:0000001300000000
#03318:00000013
#03312:0000000000000013
#0341b:0013
#03415:0000000000130013
#03418:00000013
#0351b:0013
#03515:0000000013000013
#03518:00000013
#0361b:0013000000000000
#03615:0000000013000013
#03618:00000013
#03915:0000001300000000
#03918:0013000000130000
#03912:00000013
#03910:41
#0401b:00000013
#04015:00000013
#04418:00000013
#04412:0013
#04518:00130000
#04515:2300001300000000
#04512:00000013
#0461b:0013
#04619:00000013
#04616:0013
#04614:00000013
#04718:00130000
#04715:0000000000130000
#0471b:2300002300002300
#04712:2300002300002300
#04818:0000000013000023
#04815:0000000000130000
#04812:00230000
#0481b:00230000
#04915:00130000
#04918:0000001300000013
#04912:0000000000000013
#0491f:21
#04910:0000000000000041
#0501b:0013000000000000
#05018:00000013
#05015:0013000000000023
#05118:0000130000000013
#05115:0000001300000000
#0521b:00130000
#05215:0013000000000000
#05218:0000000000000013
#05212:00000013
#05318:00130000
#05515:0000001300001300
#05518:0000000000130013
#06417:0000131300000000
#0641b:0000000000001313
#06412:0000131300000000
#06416:0000000000001313
#06718:1313
#06715:00130013
#06712:2323
#0671b:00230023
#06918:0000001300000000
#0691b:2323000000130000
#06915:0000000013000013
#06912:2323000000000000
#06910:41
#07012:0013000000000000
#07018:1300001300000000
#07015:0013
#07115:0013
#0711b:0013
#07218:13
#07212:13
#01115:0000000013000013
#01118:00000013
#0111b:0013
#01315:00000013
#01318:0000000000000013
#03815:00000013
#04115:0000001300000000
#04118:23130000
#04112:23000013
#0411f:11
#0421b:0013
#04215:00000013
#0541b:0000000000000013
#05615:0000000013000023
#05618:0000000000130000
#00918:0000130000000013
#00915:0000001300000000
#00910:41
#01015:0000000013000013
#0101b:0000000000130000
#02112:13
#02115:00130000
#0211b:00130000
#02218:0000130000130000
#02212:0013
#02215:00000013
#0221b:0000000000000013
#02318:0000000000130000
#02315:00130013
#02312:13
#0231b:0000000000000013
#03715:00000013
#03718:0000000000000013
#04318:2300001300000000
#04315:00130000
#0431b:00000013
#05718:00130000
#05715:0000001300000013
#0571b:0000000000000013
#05812:0013130000000000
#05815:00000013
#05818:0013130000000023
#05915:0000130000000013
#05918:0000001300000000
#06012:00130000
#06018:0013000000000000
#06015:0000000000000013
#0601b:00000013
#06115:00130000
#06318:0000001300001300
#06315:0000000000130013
#06212:0000000000000013
#06515:00000013
#06618:13
#0661b:0000131300000000
#06612:0000131300000000
#06615:00000013
#06815:0000000000130013
#0681b:13230000
#06812:23130000
#06818:00002323
#07315:0000001300000000
#07312:2323000000130000
#07318:0000000013000013
#0731b:2323000000000000
#0741b:0013000000000000
#07415:1300001300000000
#07418:0013
#07518:0013
#07512:0013
#07615:13
#0761b:13
#07712:13
#07718:13
#07715:00130000
#0771b:00130000
#07818:0000130000130000
#07812:0013
#07815:00000013
#0781b:0000000000000013
#07918:0000000000130000
#07915:00130013
#07912:13
#0791b:0000000000000013
#08018:00130013
#08012:0000000000130000
#08015:0013001300000013
#08418:0013001300160000
#08415:00130000
#08412:0016
#0811b:13
#08118:00130000
#08112:00130000
#08215:0000130000130000
#0821b:0013
#08218:00000013
#08212:0000000000000013
#08315:0000000000130000
#08318:00130013
#0831b:13
#08312:0000000000000013
#00158:0000005300000000
#00155:0000000000000053
#00258:0000000000000053
#00658:0000000000000053
#01352:00130000
#01358:0000000000000053
#01255:0000000000000063
#0145b:00130000
#0165b:0013000000000000
#01652:0013000000000000
#0195b:63
#01958:00630000
#02952:53
#02955:0000530000000053
#03058:0000000000530000
#03352:0000000000000053
#03655:0000000000000053
#03855:00000053
#0385b:00130000
#03952:00000063
#04155:0000005300000000
#04152:00000053
#04958:0000005300000000
#0525b:00130000
#05258:0000000000000013
#0545b:0000000000000063
#0695b:0000000000130000
#07052:0013000000000000
#0715b:0053
#07155:0063
#07258:63
#07252:63
#04858:0000000000000013
#0085b:0013000000000000
#00955:0000006300000000
#00958:0000000000000063
#01055:0000000000000063
#02352:53
#02355:00530000
#02558:0000000000000053
#0265b:0000000000000053
#0325b:0000000000000053
#03455:0000000000000053
#03752:00130000
#03758:0000000000000063
#04358:0000006300000000
#0435b:00000063
#04555:0000005300000000
#04552:00000053
#05155:0000006300000000
#06052:00130000
#06055:0000000000000013
#05755:0000006300000000
#06252:0000000000000053
#05958:0000005300000000
#05655:0000000000000013
#0645b:0000000000000053
#06456:0000000000000053
#07352:0000000000130000
#0745b:0013000000000000
#07558:0053
#07552:0063
#07655:53
#0765b:53
#07952:53
#07955:00530000
#0835b:63
#08358:00630000
#05055:0000000000000013
#05858:0000000000000013
#001380:0000001300000000
#0013b0:00000023
#001350:0000000000000013
#002320:00230000
#002380:0000000000000013
#0033b0:00230000
#005380:00001323
#006380:0000000000000013
#0073b0:00230000
#009350:0000001300000000
#009320:00000023
#009380:0000000000000013
#0103b0:00230000
#010350:0000000000000013
#011320:00230000
#012350:0000000000000013
#013320:00230000
#013380:0000000000000013
#0143b0:00230000
#0173a0:00001434
#017380:0000000000340024
#0193b0:1323
#019380:00330000
#021320:00001434
#021340:0000000000340024
#023320:1323
#023350:00330000
#025380:0000000000000013
#0263b0:0023000000000000
#0263b0:0000000000000013
#027380:00230000
#029320:1323
#029350:00330000
#029350:0000000000000013
#030320:0023000000000000
#030380:0000000000130000
#0303b0:0000000000000023
#0323b0:0000000000000013
#033380:00230000
#033320:0000000000000013
#034350:00230000
#034350:0000000000000013
#035320:00230000
#036350:0000000000000013
#037320:00230000
#037380:0000000000000013
#0383b0:00230000
#038350:00000013
#039320:23
#039320:00000013
#040350:0023
#041350:0000001300000000
#041320:0000000000333300
#042350:00230000
#043380:0000001300000000
#0433b0:0000000000333300
#044380:00230000
#045350:0000001300000000
#045320:0000000000333300
#046350:00230000
#049380:0000001300000000
#0493b0:00000023
#051350:0000001300000000
#051320:00000023
#053350:0000001300000000
#053320:00000023
#053380:0000000000000013
#0543b0:00230000
#054350:0000001300000000
#054320:00000023
#0543b0:0000000000000013
#055380:00230000
#057350:0000001300000000
#057320:00000023
#059380:0000001300000000
#0593b0:00000023
#061380:0000001300000000
#0613b0:00000023
#061350:0000000000000013
#062320:00230000
#062380:0000001300000000
#0623b0:00000023
#062320:0000000000000013
#063350:00230000
#064360:0000000000000013
#065320:0023
#0643b1:0000000000000013
#065371:0023
#070381:0000000000130000
#0713b1:0033
#072381:33
#0723b1:0023
#071350:0013
#072320:33
#072350:0023
#074350:0000000000130000
#075320:0033
#076350:33
#076320:0023
#075381:0013
#0763b1:33
#076381:0023
#077321:00001434
#077341:0000000000340024
#079321:1323
#079351:00330000
#0813a1:00001434
#081381:0000000000340024
#0833b1:1323
#083381:00330000
