This file was generated by Ched 2.7.0.0.
#TITLE ""
#ARTIST ""
#DESIGNER ""
#DIFFICULTY 0
#PLAYLEVEL
#SONGID ""
#WAVE ""
#WAVEOFFSET 0
#JACKET ""
#REQUEST "ticks_per_beat 480"
#00002: 4
#BPM01: 211
#00008: 01
#TIL00: ""
#HISPEED 00
#MEASUREHS 00
#00018:0000000013000013
#0001b:0000000000130000
#00012:0000000000130000
#00015:0000000013000013
#0011b:2300130000130000
#00118:0000001300000000
#00112:0013000000001300
#00115:0000000000000013
#00218:0000000013000013
#0021b:0000130000130000
#00212:00000013000000000000130000000000
#00215:0000000000000023
#00418:0000000000130013
#00415:13000013
#0041b:0013130013000000
#00416:00140000
#00412:0013000013000000
#0051b:1313000013130013
#00512:23002313
#00515:0000131300000000
#00516:0000000000000013
#00518:00230000
#00617:0013000000000000
#0061b:0000000013130000
#00615:00000013
#00618:0000000000000013
#00612:0013
#00718:00130000
#0071b:1313
#00717:0000000000130000
#00716:0013
#00712:1300000000130013
#00715:00130000
#0121b:0013000000130000
#01212:0013000000130000
#01215:0000000013000013
#01216:14
#01218:0013
#01312:00131313
#0131b:00001313
#01318:0000000000000013
#01418:00000013
#01412:00001313
#0141b:00131300
#0151b:1300001300130013
#01518:0013000000000000
#01516:00001414
#01512:0013001300130013
#01515:13
#0161b:0013000000000000
#01616:14
#01612:0013000025250000
#01619:0000000025250000
#0171b:1300130000130013
#01712:13
#01718:00000013
#01812:00131300
#01815:00000000000000000000130000000013
#01818:00000013
#0181b:0000000000000013
#01918:13
#0191b:0000130000130013
#01912:1300000013001313
#01917:00000013
#01910:41
#02015:00001300000000130000000000001300
#02018:0000131300001300
#0201b:0013000000130000
#02012:00131300
#02512:2300131313001300
#0251b:1313000000001313
#02517:0000001313000000
#02515:0000000000000013
#02612:13131313
#02619:0000000000130000
#0261b:0000000013000013
#02617:00000013
#02615:0000001300000000
#02712:2300131313001300
#0271b:0000000000001313
#02717:00130000
#02715:0000000000000013
#02812:13131313
#02817:0013130000130000
#0281b:0000000000000013
#02819:00000013
#02815:0000001300000000
#02912:1300000013001313
#0291b:2300131313001300
#02916:00130000
#02918:0000000000000013
#02910:41
#03016:0000000000130000
#0301b:13131313
#03012:0000001300000000
#03018:0000001300000000
#03112:1300000000000013
#03114:00130000
#03116:0000000013130000
#0311b:2300131313001300
#03118:0000000000000013
#03212:0023230013001300
#03216:0000000000140014
#0321b:1323230013001300
#03317:0000131300000000
#0331b:1300000000001313
#03312:2300131313001300
#03315:0000000000000013
#0341b:0013
#03418:0000000000130013
#03412:13131300
#03415:0000001300001300
#03512:13001313
#03516:00130000
#03515:0000000000000013
#0351b:2300131313001300
#03518:0000000000000013
#03612:0013001300001300
#03616:0000000013000013
#0361b:1300130013001313
#03618:0000001300000000
#03718:0013130000000000
#0371b:00001313
#03717:0000000000000013
#03712:0000000000001313
#03715:0013
#0381b:00000013
#03818:0013
#03812:0013
#03815:0013130000000000
#03816:00000013
#03917:13
#0391b:0013000000131300
#03915:0013
#03912:1300000000131300
#03916:0013000000000000
#03918:0000001300000000
#03910:41
#04015:13001300001300000000000013000000
#04018:1313131300130000
#04012:0000000013000013
#0401b:0013
#0411b:2300131300131300
#04116:0000131300001300
#04112:23000000000000000013000000000000
#0411f:11
#0421b:0013
#04217:13000013
#04216:0013
#04212:13000013
#04215:0000000000000013
#04218:00000000000000000000000000000013
#04418:00001313
#04415:00000000000000000013000000001300
#0441b:1300000000130000
#04416:13
#04518:0000131300001300
#04515:0000000000131300
#0451b:23000000000000000013000000000000
#04512:2300131300000000
#0461b:13001313
#04612:13001313
#04618:00000000000000000013000000000000
#04616:0000000000000014
#04615:0000000000130000
#04716:0014140014140000
#0471b:2300002300002300
#04712:2300002300002300
#0481b:00231300
#04818:1300000000130000
#04812:0000000013000023
#04815:13000013
#04915:0000130000130000
#0491b:0000001313000013
#04918:0013000000001300
#04912:1300000000000013
#0491f:21
#04910:0000000000000041
#0501b:0013000013000023
#05018:0000000000130000
#05016:0013000000000000
#05012:00000000001300000000000000000000
#05015:00000013
#05217:0013130000001300
#0521b:0000000000000013
#05212:0013130013001300
#0531b:00130000
#05312:00000013
#05418:1313000000000000
#05412:0000000013130013
#0551b:0013130000001300
#05518:0000001300000013
#05512:0000000013000013
#05515:0000000000131300
#0651b:13131313
#06512:23131313
#06516:0000001400140000
#06612:13131313
#0661b:23131313
#06616:0000001400140000
#06718:1313
#06715:0016131600161316
#06712:2323
#0671b:00230023
#06912:1626001300130013
#0691b:0013
#06917:0000001300130013
#06918:2616000000000000
#06910:41
#07015:0000001300000000
#0701b:1300000000130000
#07018:0013
#07012:0013000000130000
#07017:0013000000000000
#00812:0013000000130000
#00815:0000000013000013
#0081b:0000000000130000
#00818:0000000013000013
#01018:0000000000000013
#01015:0000000013000013
#01012:0000130000130000
#0101b:00000013000000000000130000000000
#0111b:0000130023000013
#01116:00001314
#01112:0000230000001313
#01118:13
#01115:0013000000000000
#05615:0013130013000000
#05618:00000013000000000000130000000000
#05612:0000001300001300
#0561b:0000000000001323
#06816:0014001400000000
#0681a:0000000024142414
#06812:2300230024142414
#0681b:23230000
#07212:1300000013160000
#07218:00130000130000000013000013001600
#07215:0013000000000000
#0721b:0000001300000000
#0831b:1300000000130013
#08316:1400140000001413
#08312:00001313
#00315:1313000000000000
#00318:1313000000000013
#00316:0000000000140000
#0031b:0013
#00312:0000000013130000
#00912:2300130000130000
#00915:0000001300000000
#0091b:0013000000001300
#00918:0000000000000013
#00910:41
#02112:1300130000130013
#0211b:13
#02115:00000013
#0221b:00131300
#02218:00000000000000000000130000000013
#02215:00000013
#02212:0000000000000013
#02315:13
#02312:0000130000130013
#0231b:1300001313001313
#02316:00000013
#02418:00001300000000130000000000000000
#02415:0000131300000000
#02412:0013000013130000
#0241b:0000130013130000
#04312:2300131300131300
#04317:0000131300001300
#0431b:23000000000000000013000000000000
#05118:0000130000130000
#05112:0000001313000013
#05115:0013000000001300
#0511b:1300000000000013
#05716:00140014
#05712:0013001313000013
#0571b:1300000000130013
#05812:0013130013000023
#05815:0000000000130000
#05817:0013130000000000
#05818:00000013
#06016:0013130000001300
#06012:0000000000000013
#0601b:0013130013001300
#06112:00130000
#0611b:00000013
#06215:1313000000000000
#0621b:0000000013130013
#06312:0013130000001300
#06315:0000001300000013
#0631b:0000000013000013
#06318:0000000000131300
#05916:00140014
#0591b:0013001313000013
#05912:1300000000130013
#06412:0000141400140000
#06416:0000000014000014
#0641a:0000140000141400
#07112:1316000013160000
#07118:0000131600001316
#0731b:0000001300130013
#07312:2616000013000000
#07316:0000001300130013
#07318:1626000000000000
#07418:0000001300000000
#07412:1300000000130000
#07415:0013
#0741b:0013000000130000
#07416:0013000000000000
#0761b:1313
#07618:0013000000160000
#07615:00130000130000000013000013000000
#07612:0000001300000016
#0751b:1313
#07518:0016000000160000
#07515:00130013
#07512:0000001600000016
#07712:1300130000130000
#0771b:13000013
#07717:0000000000000013
#07816:00130000
#0781b:0013
#07818:0000000000130000
#07815:00000013
#07812:0000000000000013
#0781a:00000000000000000000000000000014
#07912:1300000000130013
#07916:14140014
#0791b:0000000013001313
#08018:00001300000000130000130000000000
#08015:0000131300001300
#08012:0013000000000013
#0801b:00131300
#0841b:00131300
#08417:0000001300130000
#08416:0013
#08412:0000000000130000
#0811b:1300130000130000
#08112:13000013
#08116:0000000000000013
#08217:00130000
#08212:00000000000000001300000000000014
#08215:0000000000130000
#08218:00000013
#0821b:0000000000000013
#00055:0000000000000053
#00158:0000005300000000
#00155:0000000000000053
#00152:0023000000000000
#0015b:0000000000230000
#00252:00000023000000000000000000000000
#00258:0000000000000053
#00255:0000000000000053
#00852:0013000000000000
#00858:0000000000000063
#0165b:0013000000000000
#01652:0013000000000000
#01752:53
#0175b:1300530000000053
#01756:00130000
#01952:53
#0195b:00530000
#02757:00530000
#03056:0013000000530000
#0335b:0000000000000053
#04156:0000005300005300
#0415b:13000053
#04152:00000000000000000023000000000000
#04558:0000005300005300
#04555:00000053
#0455b:13000000000000000023000000000000
#04652:23
#0465b:23
#05056:0053000000000000
#05052:00000000002300000000000000000000
#0505b:0013000000000013
#0525b:0000000000000013
#05252:00130000
#05257:00630000
#05452:0000000000000053
#04852:0000330000000013
#04855:23
#0485b:00430000
#03758:00130000
#03752:00130000
#03757:0000000000000063
#00355:2363000000000000
#00358:2353000000000000
#00356:0000000000140000
#00456:00140000
#0055b:0000000000000013
#00556:0000000000000053
#00955:0000006300000000
#00958:0000000000000063
#0095b:0023000000000000
#00952:0000000000230000
#0105b:00000023000000000000000000000000
#0135b:00130000
#01452:00130000
#01552:0013000000130000
#0155b:0000001300000013
#02152:1300630000000063
#0215b:63
#02157:00130000
#02352:00630000
#0235b:63
#0255b:0000000000000053
#02657:0013000000000000
#02952:0000000000000053
#03656:0000000000000053
#03855:00130000
#0385b:00130000
#04252:23
#04257:23
#04352:13000063
#04357:0000006300006300
#0435b:00000000000000000023000000000000
#0445b:23
#04456:23
#0475b:13000013
#04752:0000001300005300
#0495b:0000000000000013
#05152:0000000000000013
#05558:0000001300000013
#05552:0000000000000013
#05752:0000000000000013
#05852:0000130000000013
#05857:00630000
#06052:0000000000000013
#0605b:00130000
#06056:00530000
#06355:0000001300000013
#0635b:0000000000000013
#0625b:0000000000000063
#0595b:0000000000000013
#0565b:0000000000000013
#06952:0016000000130000
#07052:0013000000000000
#0705b:0000000000530000
#0735b:0000000000130000
#07358:0016000000000000
#07452:0000000000630000
#0745b:0013000000000000
#07752:13630000
#0775b:63
#07757:0000130000000063
#07956:64640000
#0835b:0000000000000053
#08356:54540000
#0125b:0013000000000000
#06552:13131313
#0665b:13131313
#06752:1313
#0675b:00130013
#06852:13
#0685b:00130000
#00652:0013000000000000
#0815b:13530000
#08152:53
#08156:0000130000000053
#000350:0000000000000013
#001320:0053000000000000
#001350:0000002300000000
#001381:0000001300000023
#0013b1:0000000000530000
#001350:0000000000000013
#002320:00000053000000000000000000000000
#002350:0023
#002380:0000000000000013
#003350:53
#003380:0053000000000000
#0033b0:00230000
#002351:0000000000000013
#003381:53
#003351:0053000000000000
#003321:00230000
#005361:0000000000000013
#006321:0023000000000000
#007371:0000000000000013
#0083b1:33
#008371:0023000000000000
#008381:0000000000000013
#0093b1:0053000000000000
#009381:0000002300000000
#009350:0000001300000023
#009320:0000000000530000
#009381:0000000000000013
#0103b1:00000053000000000000000000000000
#010381:0023
#012381:0000000000000013
#013381:23
#013350:1323000000000000
#0133b1:0013230000000000
#013351:0000000000000013
#014351:23
#014380:1323000000000000
#014321:0013230000000000
#017321:13
#017361:00230000
#0173b0:00130000
#017380:0023
#017321:0013
#017351:0000000000230000
#017321:00000013
#017351:0000000000000023
#0173b0:0000000000000013
#018370:00230000
#019320:13
#019360:00230000
#0193b1:00130000
#019371:0023
#0213b1:13
#021371:00230000
#021320:00130000
#021350:0023
#0213b1:0013
#021381:0000000000230000
#0213b1:00000013
#021381:0000000000000023
#021320:0000000000000013
#022360:00230000
#0233b0:13
#023370:00230000
#023321:00130000
#023361:0023
#0253b1:0000000000000013
#026371:0023000000000000
#027371:00130000
#0273b1:0023
#029321:0000000000000013
#030361:0023000000000000
#030361:0000000000130000
#030321:0000000000000023
#0333b1:0000000000000013
#034381:00230000
#036361:0000000000000013
#037321:00230000
#037371:0000000000000013
#0383b1:00230000
#041361:0000001300003300
#041321:00000000000000000053000000000000
#042321:53
#042361:00230000
#0413b0:00000013
#042370:53
#0423b0:00230000
#043370:0000001300003300
#0433b0:00000000000000000053000000000000
#0443b0:53
#044370:00230000
#043321:00000013
#044361:53
#044321:00230000
#045381:0000001300003300
#0453b1:00000000000000000053000000000000
#0463b1:53
#046381:00230000
#045350:00000013
#046320:53
#046350:00230000
#047320:00000013
#048350:53
#048320:00230000
#0483b0:0000000000000013
#0493b0:23
#049320:0000001323000000
#050360:0013000023000000
#050320:00000000005300000000000000000000
#050320:0000000000000013
#051320:23
#0513b0:0000001323000000
#052370:00130000
#0523b0:0023
#052360:0000000000000013
#053320:33330000
#053360:0000002300000000
#0533b1:0000001300000023
#053371:00003333
#053360:0000000000000013
#054320:23
#054320:00130000
#054360:0000002300000000
#0543b1:0000001300000000
#054371:0023
#054371:00000013
#0543b1:0000000000000023
#054320:0000000000000013
#055360:00230000
#056320:0000000000000013
#057350:23
#0573b0:0000001300000000
#057380:0023
#058370:00130000
#0583b0:0023
#0583b0:0000000000000013
#059380:23
#059320:0000001300000000
#059350:0023
#060360:00130000
#060320:0023
#060370:0000000000000013
#0613b0:33330000
#061370:0000002300000000
#061321:0000001300000023
#061361:00003333
#061370:0000000000000013
#0623b0:23
#0623b0:00130000
#062370:0000002300000000
#062321:0000001300000000
#062361:0023
#062361:00000013
#062321:0000000000000023
#0623b0:0000000000000013
#063370:00230000
#0703b0:0000000000130000
#071370:23
#074320:0000000000130000
#075360:23
#0773b0:13
#077370:00230000
#077321:00130000
#077351:0023
#0773b0:0013
#077380:0000000000230000
#077350:00000013
#077320:0000000000000023
#077371:0000000000000013
#0783b1:00230000
#079361:14
#0793a1:00240000
#079360:00140000
#079320:0024
#081320:13
#081360:00230000
#0813b1:00130000
#081381:0023
#081320:0013
#081350:0000000000230000
#081380:00000013
#0813b0:0000000000000023
#081361:0000000000000013
#082321:00230000
#083361:14
#083321:00240000
#083360:00140000
#0833a0:0024
#0833b0:0000000000000013
#084370:0023000000000000
#084321:0013002300000000
#084361:00330000
