This file was generated by Ched 2.7.0.0.
#TITLE ""
#ARTIST ""
#DESIGNER ""
#DIFFICULTY 0
#PLAYLEVEL
#SONGID ""
#WAVE ""
#WAVEOFFSET 0
#JACKET ""
#REQUEST "ticks_per_beat 480"
#00002: 4
#BPM01: 211
#00008: 01
#TIL00: ""
#HISPEED 00
#MEASUREHS 00
#07718:1414
#07714:00140000
#00114:0014
#0011a:24
#0021a:14
#00214:0014
#00318:14
#00312:0014
#00418:14
#00412:0014
#0051a:14
#00512:0014
#00914:0014
#0091a:24
#00910:41
#01018:14
#01012:0014
#0111a:14
#01114:0014
#01218:14
#01212:0014
#01318:14
#0151a:14
#02514:0014
#0251a:24
#02712:14
#02718:0014
#02918:14
#02914:0014
#02910:41
#03114:14
#03118:0014
#03312:0014
#0331a:24
#03512:14
#0351a:0014
#03718:14
#03712:0014
#03914:14
#0391a:0014
#03910:41
#0411a:14
#04118:00003414
#0411f:11
#04312:14
#04314:00003414
#04518:14
#0451a:00003414
#04714:14
#04712:00003414
#04914:00140014
#0491a:2414
#0491f:21
#04910:0000000000000041
#05118:00140014
#05112:1414
#0571a:00140014
#05714:2414
#05912:00140014
#05918:1414
#07115:0016
#07218:16
#07814:1414
#07818:00140000
#0791a:1414
#07914:00140000
#08012:1414
#08018:00140000
#08118:14
#08114:00140000
#0811a:0014
#08214:14
#08218:00140000
#08212:0014
#0831a:14
#08314:00140000
#08318:0014
#08412:14
#0841a:00140000
#08414:0014
#08418:0000000000140000
#01714:00140000
#0171a:2414
#01814:1414
#0181a:00140000
#01918:1414
#01912:00140000
#01910:41
#02012:1414
#02018:00140000
#02114:00140000
#02118:0014
#0211a:14
#02212:14
#02218:00140000
#02214:0014
#02318:14
#02314:00140000
#0231a:0014
#02414:14
#02418:00140000
#02412:0014
#0651a:14
#06512:00140000
#06516:0014
#06612:14
#0661a:00140000
#06616:0014
#0671a:14
#06714:00140000
#06718:0014
#06712:00000014
#06818:14
#06814:00140000
#0681a:0014
#06212:14
#06218:14
#0631a:14
#06314:14
#0611a:14
#06114:14
#06412:14
#06418:14
#0061a:14
#00612:0014
#00718:14
#00714:0014
#00818:14
#00814:0014
#01414:14
#01612:14
#07515:0016
#07612:16
#06918:26
#06912:0000000000000026
#06910:41
#07018:0026000000260000
#07012:0000002600000000
#07312:26
#07318:0000000000000026
#07412:0026000000260000
#07418:0000002600000000
#04218:34
#04414:34
#0461a:34
#04812:34
#0415a:64
#04158:00000024
#04352:54
#04354:00000024
#04558:54
#0455a:00000024
#04754:64
#04752:00000024
#07155:0056
#07058:0000000000660000
#07258:66
#06252:54
#06258:54
#0635a:64
#06354:64
#0615a:64
#06154:64
#06452:54
#06458:54
#0495a:14
#05754:14
#0685a:0014
#01358:14
#01454:14
#0155a:14
#01652:14
#07555:0066
#07652:56
#07452:0000000000560000
#026380:1424
#028340:1424
#0303a0:1424
#032320:1424
#034380:1424
#036340:1424
#0383a0:1424
#040320:1424
#0413a0:14
#041380:00003454
#042380:34
#0423a0:0024
#043320:14
#043340:00003454
#044340:34
#044320:0024
#045380:14
#0453a0:00003454
#0463a0:34
#046380:0024
#047340:14
#047320:00003454
#048320:34
#048340:0024
#0503a0:14
#050390:00340000
#050380:0024
#052320:14
#052330:00340000
#052340:0024
#053340:14
#053320:0024
#0533a1:14
#053381:0024
#054321:14
#054341:0024
#054380:14
#0543a0:0024
#055340:14
#055320:0024
#0553a1:14
#055381:0024
#056381:14
#0563a1:0024
#056320:14
#056340:0024
#058340:14
#058330:00340000
#058320:0024
#060380:14
#060390:00340000
#0603a0:0024
#061340:14
#061320:0024
#0613a1:14
#061381:0024
#062321:14
#062341:0024
#062380:14
#0623a0:0024
#063340:14
#063320:0024
#0633a1:14
#063381:0024
#064381:14
#0643a1:0024
#064320:14
#064340:0024
#069380:1600003600260000
#070380:0000000000160000
#071350:0036
#072380:36
#072350:0026
#073320:1600003600260000
#074320:0000000000160000
#075350:0036
#076320:36
#076350:0026
