This file was generated by Ched 2.7.0.0.
#TITLE ""
#ARTIST ""
#DESIGNER ""
#DIFFICULTY 0
#PLAYLEVEL
#SONGID ""
#WAVE ""
#WAVEOFFSET 0
#JACKET ""
#REQUEST "ticks_per_beat 480"
#00002: 4
#BPM01: 170
#00008: 01
#TIL00: ""
#HISPEED 00
#MEASUREHS 00
#00119:14
#00219:14
#00313:14
#00413:14
#0051a:14
#0061a:14
#00712:14
#00812:14
#0091a:14
#01014:14
#0111a:14
#01214:14
#01318:14
#01412:14
#01518:14
#01612:14
#0171a:14
#01710:41
#0181a:14
#01912:14
#02012:14
#02118:14
#02218:14
#02314:14
#02414:14
#07412:0016
#07418:16
#07518:16
#07512:0016
#07612:0016
#07618:16
#07812:16
#07818:0016
#07312:0016
#07318:26
#0731f:21
#07310:0000000000000041
#07912:1616
#08218:0016
#08212:16
#08312:16
#08318:0016
#08418:0016
#08412:16
#08618:16
#08612:0016
#08118:0016
#08112:26
#08718:1616
#03912:1616
#03818:1616
#03618:0016
#03612:16
#03518:1616
#03412:1616
#03318:2616
#04718:1616
#04612:1616
#04412:0016
#04418:16
#04312:1616
#04218:1616
#04112:2616
#04110:41
#0571a:14
#05812:14
#0591a:14
#06012:14
#06118:14
#06214:14
#06318:14
#06310:41
#06414:14
#0901a:14
#09114:14
#09218:14
#09312:14
#0941a:14
#09514:14
#09618:14
#0651f:11
#02910:41
#08510:41
#0253a0:14
#0263a0:24
#027320:14
#028320:24
#029380:14
#030380:24
#031340:14
#032340:24
#037320:1626
#040380:1626
#045380:1626
#048320:1626
#0493a0:14
#0503a0:24
#051340:14
#052340:24
#053380:14
#054380:24
#055320:14
#056320:24
#065380:14
#066380:24
#067320:14
#068320:24
#0693a0:14
#0703a0:24
#071340:14
#072340:24
#077380:1626
#080380:1626
#085320:1626
#088320:16
#089320:0026
#097320:14003400003400003400003400003400
#098320:0000000000240000
