This file was generated by Ched 2.7.0.0.
#TITLE ""
#ARTIST ""
#DESIGNER ""
#DIFFICULTY 0
#PLAYLEVEL
#SONGID ""
#WAVE ""
#WAVEOFFSET 0
#JACKET ""
#REQUEST "ticks_per_beat 480"
#00002: 4
#BPM01: 170
#00008: 01
#TIL00: ""
#HISPEED 00
#MEASUREHS 00
#00118:13000000000000000000000000000013
#00115:0000000000000013
#00018:0000000000000013
#00015:00000000000000000000000000000013
#00216:0000000000140000
#00215:13
#00218:0000000000000014
#00214:00000000000000000000000000000014
#00418:00160000
#00415:00000000000000160000000000000000
#00412:00000000000000000000160000000013
#00417:00000013
#00414:14000000000000000000000000130000
#00419:0000000000000013
#00516:0014001400140014
#0051b:23
#00616:0014001400140014
#0061b:23
#00716:0014001400140014
#0071b:23
#0081b:13
#00812:23
#0091b:0013000013000013
#00912:00130000
#00915:0000001300000000
#00918:00000000001300000000000000000000
#01112:0000130000000013
#01115:13000000000013000033000000000000
#0111b:0013000013000000
#01118:00000000001300000000000000000013
#01116:00000015
#01114:0000000000330000
#01113:00000000000000000000003300000000
#01015:13000000001300000000230023000000
#01012:0013000013000013
#0101b:13130000
#01018:00000000000013000000000000000013
#0151b:0000001300000013
#01512:1300000013000013
#01518:13000000130000000033000000000000
#01515:00001300001300000000000015000000
#01519:0000000000330000
#0151a:00000000000000000000003300000000
#01618:13000000002300000000002300000000
#01615:0000130000130000
#01612:00130000000000130000000000130000
#0161b:0023000023000023
#0171a:14
#01715:0013001300000013
#01718:00130000
#01712:14001313
#01710:41
#01818:13
#01815:0013000000000013
#01812:00131314
#0181a:0000000000242400
#02016:0014001400000014
#02012:00000014
#0201a:0014
#0191b:1313000000000000
#01918:0000000000130013
#01915:00131313
#01912:0000000000000013
#02112:14
#02118:0013001300000013
#02115:00130000
#0211b:00001313
#0211a:14
#02215:1300001300000000
#02218:0013000013000000
#02216:0000000000000014
#0221b:00130000
#02212:0000130000242400
#0221a:00000014
#0231a:14
#02312:1400130000130000
#02315:00000000000000130000000000001300
#02318:0000001300001300
#0231b:0000130000000013
#02412:1300001400000014
#0241b:0013
#02415:00000000000000000013000000000000
#0241a:0000001400000014
#02418:00130000000000000000240024000000
#02414:0024240000000000
#02512:0000130000130000
#02518:00000013
#02515:1300001300000013
#0261b:1300000013000013
#02612:0013000000242400
#02618:00130013
#02615:0000001300000000
#0271b:0000130000130000
#02715:00000013
#02718:1300001300000013
#02812:1313
#02818:0000001300000013
#02815:00130013
#0281a:0024240000242400
#02915:13131313
#02918:0013001300131300
#0291b:1300000000000013
#02912:0000001300000000
#02910:41
#03015:1313000000000000
#03012:0000130013002424
#03018:0013001300000000
#03016:0000000000140000
#0301b:0013
#0301a:0000000000002424
#0311b:00130000
#03112:00130000
#03115:0016000013000000
#03119:0000000000000013
#03114:0000000000000013
#03118:0013
#0321b:0000000013000000000000000000000000000000000000000033333333333333
#03212:0013000024000000
#03218:00130000
#03215:0000001300000000
#03217:00000013
#0321a:0024
#0331b:00001300000000001300001300000000
#03315:00130000
#03318:0000001300000000
#03312:0013
#03316:24000000000000000000001300001400
#03418:0014000000001300
#0341a:0000001400000000
#03414:0013000000000000
#03416:0000001300000000
#03412:0000000000130000
#03415:0000000000000013
#0341b:0000000000130000
#03512:13000000000000001300001300000000
#03518:1300001300000000
#0351b:0013000013000000
#03515:00130000
#03516:0000000000000014
#03517:00000000000000000000001300000000
#03616:0014001300000000
#03612:0013000000130000
#03614:00130000
#03618:0000000000000013
#03615:00000000000000000000000000130000
#0361b:00000013
#0371b:0000001313000000
#03716:0013
#03714:28000000000000000000001300000000
#03712:0000000000000013
#03719:00000000000000000000001300000000
#03717:0000000000000013
#03819:00130013
#03815:0013000000000013
#0381b:0013000000000013
#03812:0000001300130000
#0391b:00001300000000000000001300000000
#03912:0013000013000013
#03918:0000130013000013
#03915:0000001300000000
#03916:0000000000130000
#04012:0000000000130000
#04015:00000013
#04018:0000000000000013
#04017:0016000016000000
#04013:00000000001600000000000000000000
#04112:00001300000000001300001300000000
#04118:00130000
#04115:0000001300000000
#0411b:1313
#04116:2400000000000014
#04117:00000000000000000000001300000000
#04110:41
#04214:0014000000000000
#04212:0000001400130000
#04219:0013000000000000
#04217:0000001300000000
#0421b:0000000000130000
#04215:00000013
#04218:0000000000000013
#0431b:13000000000000001300001300000000
#04315:1300001300000000
#04312:0013000013000000
#04318:00130000
#04316:00000000000000000000001300001400
#04416:0014000000000000
#0441b:0013000000130000
#04419:00130000
#04417:0000001300000000
#04415:0000000000000013
#04418:00000000000000000000000000130000
#04412:00000013
#04512:0000001313000000
#04517:0013
#04519:00000000000000000000001300000000
#0451b:0000000000000013
#04514:28000000000000000000001300000000
#04516:0000000000000013
#04614:00130013
#04618:0013000000000013
#04612:0013000000000013
#0461b:0000001300130000
#04712:00000000130000000000001300000000
#04717:0000001300130000
#0471b:1300000013000013
#04715:0000000013000013
#04912:0013001300130013
#05014:0013001300130013
#0511b:0013001300130013
#05219:0013001300130013
#0531a:14
#05312:00141414
#0531b:0000001300130000
#05318:00000000000000000000000000130000
#05315:0000000000000013
#05412:1400001300130000
#0541a:14141414
#05415:00000000000000000000000000130000
#05418:0000000000000013
#05512:24142414
#05515:0013000000130000
#05518:0000001300000013
#0551a:14241424
#05618:0000000000001616
#05612:25002500250025002500250000160016
#05619:2525252525250000
#05712:0000150000000013
#05719:00000015
#05714:28
#05816:0000000000000013
#05814:00000013
#05812:0000001300130000
#05815:0013000000000000
#06016:0014001400140014
#0601a:00000014
#06012:0013000000130000
#0601b:0000001300000000
#05912:1400000000000024
#0591a:1400140000000024
#05916:00000014
#06217:0000000000000013
#06219:00000013
#0621b:0000001300130000
#06218:0013000000000000
#06312:1400140000000014
#06312:0000000000000024
#06316:00000014
#0631a:1400000000000024
#06310:41
#0641a:00001400001400001400000000000000
#06416:00000000140000140000000000000000
#06418:00000000000000000000001300130013
#06415:0000000000131313
#06412:0014000000000000
#04813:0016000016000000
#04817:00000000001600000000000022000000
#0971b:00130000000000130000000000130000
#09718:0000130000130000
#09715:13000000002300000000002300000000
#09712:0023000023000000
#00318:14000000000000000000000000000014
#00314:0000000000000014
#06112:00000015
#0611b:0000000000000013
#06114:28
#07119:0000000000130000
#07117:00130013
#0711b:0013
#07116:0014
#07112:0000140000000024
#0711a:0000000000000024
#07114:0000000000340000
#07015:0000001300000013
#07018:0000130000130000
#07012:0023000023002300
#0701b:0023000023002300
#06818:0000001300000013
#06815:0000130000130000
#0681b:0023000023002300
#06812:0023000023002300
#06916:0000000000000013
#0691b:13131313
#06912:13131300
#06915:0000001300000000
#06918:0013000000000000
#0651b:23131300
#06518:0000000000130013
#06512:1300000013000013
#06515:00000013
#0651f:11
#06717:0000000000000013
#06712:13131313
#0671b:13131300
#06718:0000001300000000
#06715:0013000000000000
#0661b:0013000000000000
#06615:0013001300000000
#06618:00130000
#07216:00000013
#07212:0000000000000000000000000000000000000000000000000033333333333333
#07312:0013000013000024
#07318:00130000
#07315:2600001300000000
#07316:00000000000000000000001300000000
#07317:0013
#0731b:00000000000000000000001300000000
#0731f:21
#07310:0000000000000041
#0741b:0000001300130000
#07415:00000013
#07418:0000000000000013
#07412:0000000000130000
#07419:0013000000000000
#07414:0024000000000000
#07416:0000002400000000
#0751b:13000000000000001300001300000000
#07515:1300001300000000
#07512:0013000013000000
#07518:00130000
#07516:00000000000000000000001300002400
#0761b:0013000000130000
#07619:00130000
#07617:0000001300000000
#07615:0000000000000013
#07618:00000000000000000000000000130000
#07612:00000013
#07616:0024000000000000
#07712:2400001313000000
#07717:0013
#07719:00000000000000000000001300000000
#0771b:0000000000000013
#07714:00000000000000000000001300000000
#07716:0000000000000013
#0771a:24
#07814:00130013
#07818:0013000000000013
#07812:0013000000000013
#0781b:0000001300130000
#07912:00001300000000000000001300000000
#0791b:0013000013000013
#07915:0000130013000013
#07918:0000001300000000
#07917:0000000000130000
#0801b:0000000000130000
#08018:00000000002600000000000013000000
#08015:0000000000000013
#08012:0026000026000000
#08112:13000000000000000000001300000000
#0811b:0013000013000000
#08115:26130000
#08118:0000001300000000
#08117:00000000000000000000001300000000
#08116:0013
#0811a:0000000000000024
#09812:0016000000000000
#09612:0000001300000013
#0961b:1300000013000013
#09615:13000000130000000033000000000000
#09618:00001300001300000000000000000000
#09616:00000015
#09614:0000000000330000
#09613:00000000000000000000003300000000
#08712:1300000013000013
#08718:0000000013000013
#0871b:00000000130000000000001300000000
#08716:0000001300130000
#08212:0000001300130000
#08218:0024000000001300
#08215:0000000000000013
#0821b:0000000000130000
#08214:0013000000000000
#08216:0000002400000000
#08312:13000000000000001300001300000000
#08318:1300001300000000
#0831b:0013000013000000
#08315:00130000
#08317:00000000000000000000001300000000
#08316:0000000000000024
#08412:0013000000130000
#08414:00130000
#08416:0024001300000000
#08418:0000000000000013
#08415:00000000000000000000000000130000
#0841b:00000013
#0851b:0000001313000000
#08516:0013
#08514:00000000000000000000001300000000
#08512:2400000000000013
#08519:00000000000000000000001300000000
#08517:0000000000000013
#0851a:24
#08510:41
#08619:00130013
#08615:0013000000000013
#0861b:0013000000000013
#08612:0000001300130000
#01215:13000000002300000000001300000000
#01218:00130000000000130000130014001500
#0121b:00130000
#01214:00000000000000000000000000140000
#01212:00002300000000002300000000000016
#01314:0016000000000000
#01312:0000001313000013
#01318:26
#01415:13130000
#01418:00001300001300000000230023000000
#0141b:1300000013000013
#01412:0000001300000000
#09012:2c13000013000013
#0901b:00130000
#09018:0000001300000000
#09015:00000000001300000000000000000000
#0921b:0000130000000013
#09218:13000000000013000033000000000000
#09212:0013000013000000
#09215:00000000001300000000000015000013
#09219:0000000000330000
#0921a:00000000000000000000003300000000
#09118:13000000001300000000230023000000
#0911b:0013000013000013
#09112:13130000
#09115:00000000000013000000000000000013
#09318:13000000002300000000001300140016
#09315:00130000000000130000130000000000
#09312:00130000
#09314:00000014
#09313:0000000000000015
#0931b:0023000023000000
#09416:0016000000000000
#0941b:0000001313000013
#09412:26
#09518:13130000
#09515:00001300001300000000230023000000
#09512:1300000013000013
#0951b:0000001300000000
#08818:0026000026000026
#08812:00000000002600000000002600000000
#08912:0027000027000027
#08917:00000000002700000000002700000000
#0085b:13
#0175a:14
#02152:14
#02555:1300001300000000
#02955:13002313
#02958:0023001300005300
#0295b:5300000000000023
#02952:0000006300000000
#03055:0063000000000000
#03052:00230000
#03058:0013000000000000
#0315b:00530000
#03152:00630000
#03158:0053
#03155:0063
#03257:00000053
#03352:0053
#03356:14000000000000000000005300004400
#03458:0044000000000000
#0345a:0000004400000000
#0355b:0063
#03557:00000000000000000000006300000000
#03556:0000000000000014
#03656:0014000000000000
#03754:00180000
#0415b:0063
#04156:1400000000000034
#04157:00000000000000000000006300000000
#04254:0034000000000000
#04252:0000003400000000
#04352:0053
#04356:00000000000000000000005300001400
#04456:0014000000000000
#04554:00180000
#0475b:53
#0535a:14
#05452:14
#05754:18
#05752:00150000
#06154:00180000
#06056:0014001400000000
#05957:0014
#05955:00140000
#0595a:00540000
#05952:64
#08858:0046000046000046
#08852:00000000003600000000003600000000
#04057:0046000046000000
#04053:00000000003600000000000000000000
#04853:0036000036000000
#04857:00000000004600000000000012000000
#02758:1300001300000000
#07156:0054
#07152:00640000
#06956:0000000000000013
#06952:0053
#06757:0000000000000013
#0675b:0063
#06552:63
#07256:00000063
#07552:0053
#07556:00000000000000000000005300001400
#07355:16
#07357:0053
#0735b:00000000000000000000005300000000
#07352:0000000000000034
#08155:16
#08156:0063
#08152:00000000000000000000006300000000
#0815a:0000000000000044
#07754:00140000
#07752:64
#0775a:54
#07758:00140000
#08052:0036000036000000
#08058:00000000004600000000000000000000
#09052:1c
#07454:0034000000000000
#07456:0000003400000000
#07656:0014000000000000
#09852:0066000000000000
#08752:63
#0835b:0063
#08357:00000000000000000000006300000000
#08356:0000000000000014
#08258:0044000000000000
#08256:0000004400000000
#08456:0014000000000000
#01354:0026000000000000
#01358:56460000
#05855:0013000000000000
#05852:0000001300000000
#06258:0013000000000000
#0625b:0000001300000000
#0855a:54
#08552:64
#08558:00140000
#08554:00140000
#08952:0017000017000017
#08957:00000000001700000000001700000000
#0635a:54
#06352:00640000
#06357:00140000
#06355:0014
#0205a:0054
#00952:1c
#09456:0026000000000000
#09452:66360000
#008320:13
#009320:2c
#009360:0013
#009340:00000000000000000033000000000000
#009320:0000000000330000
#009350:00000000000000000000003300002300
#010370:0013
#010390:00000000000000000033000000000000
#0103b0:0000000000330000
#010380:00000000000000000000003300002300
#011360:0013
#011350:00000000000000000033000000000000
#011340:0000000000330000
#011330:00000000000000000000003300000000
#011320:00000023
#013380:16260000
#013340:0056000000000000
#013370:0013
#013390:00000000000000000033000000000000
#0133b0:0000000000330000
#013380:00000000000000000000003300002300
#014360:0013
#014340:00000000000000000033000000000000
#014320:0000000000330000
#014350:00000000000000000000003300002300
#015370:0013
#015380:00000000000000000033000000000000
#015390:0000000000330000
#0153a0:00000000000000000000003300000000
#0153b0:00000023
#017370:0013
#0173b0:00000023
#0183b0:00130000
#018370:0023
#0193b0:00132300
#0203a0:1424000000000000
#020320:0000142400000000
#0203a0:0014
#020360:00000024
#021360:0013
#021320:00000023
#025380:13
#0253b0:00230000
#025380:0000001300000000
#0253b0:0000000000230000
#027350:13
#027320:00230000
#027350:0000001300000000
#027320:0000000000230000
#0293b0:13230000
#029380:0053000000000000
#029320:0000001300230000
#029350:0053
#029380:00000013
#0293b0:0000000000000053
#030380:23
#030350:0013002300000000
#030320:00530000
#0313b0:00130023
#031380:0033
#031321:00130023
#031351:0033
#032371:00000013
#0323b1:0000000000000000000000000000000000000000000000000033333333333333
#0333b1:23
#033321:0000000013000023
#033361:00000000000000000000003300000000
#0353b1:0000000013000023
#035371:00000000000000000000003300000000
#0363b1:0000001300230000
#037341:18280000
#038371:0000001300230000
#0413b1:0000000013000023
#041371:00000000000000000000003300000000
#043321:0000000013000023
#043361:00000000000000000000003300000000
#044321:0000001300230000
#045341:18280000
#046361:0000001300230000
#0473b1:13
#047371:00230000
#0493b1:13
#0493a1:00330000
#049391:0033
#049381:00000033
#050371:33
#050381:00330000
#050391:0033
#0503a1:00000033
#0513b1:23
#051320:13
#051330:00330000
#051340:0033
#051350:00000033
#052360:33
#052350:00330000
#052340:0033
#052330:00000033
#053320:23
#057390:00000000155555552500000000000000
#057380:0000000000000000005500550055005500000000000000000000000000000000
#057321:00000000000000001555555525000000
#057331:0000000000000000000000000000000000550055005500550000000000000000
#057371:0000000000000013
#0583b1:0033000000000023
#058391:00330033
#058371:0000003300330000
#059321:14
#059351:00240000
#0593a0:00140000
#059370:0024
#061340:18280000
#061390:00000000000000001555555525000000
#061380:0000000000000000000000000000000000550055005500550000000000000000
#061360:0000000000000013
#062320:0033000000000023
#062340:00330033
#062360:0000003300330000
#0633a0:14
#063370:00240000
#063321:00140000
#063351:0024
#065321:13
#065361:00230000
#066321:0000000013230000
#066370:0000000013230000
#0663b0:0000000000001323
#066361:0000000000001323
#0673b1:0013
#067371:00000023
#0683b1:0013
#068381:0000000000230000
#068321:00000013
#068351:0000000000000023
#069321:0013
#069361:00000023
#070321:0013
#070351:0000000000230000
#0703b1:00000013
#070381:0000000000000023
#071321:00140024
#071361:0034
#071341:0000000000340000
#072361:00000013
#072321:0000000000000000000000000000000000000000000000000033333333333333
#073321:23
#073371:0000000013000023
#0733b1:00000000000000000000003300000000
#075321:0000000013000023
#075361:00000000000000000000003300000000
#076321:0000001300230000
#077321:14
#077341:0000005400000000240000000000000000000000000000000000000000000000
#0773a0:14
#077380:0000005400000000240000000000000000000000000000000000000000000000
#078360:0000001300230000
#081360:0000000013000023
#081320:00000000000000000000003300000000
#0833b0:0000000013000023
#083370:00000000000000000000003300000000
#0843b0:0000001300230000
#0853a0:14
#085380:0000005400000000240000000000000000000000000000000000000000000000
#085321:14
#085341:0000005400000000240000000000000000000000000000000000000000000000
#086371:0000001300230000
#087321:13
#087361:00230000
#090371:0013
#090391:00000000000000000033000000000000
#0903b1:0000000000330000
#090381:00000000000000000000003300002300
#091361:0013
#091341:00000000000000000033000000000000
#091321:0000000000330000
#091351:00000000000000000000003300002300
#092371:0013
#092381:00000000000000000033000000000000
#092391:0000000000330000
#0923a1:00000000000000000000003300000000
#0923b1:00000023
#094321:16260000
#094361:0056000000000000
#094361:0013
#094341:00000000000000000033000000000000
#094321:0000000000330000
#094351:00000000000000000000003300002300
#095371:0013
#095391:00000000000000000033000000000000
#0953b1:0000000000330000
#095381:00000000000000000000003300002300
#096361:0013
#096351:00000000000000000033000000000000
#096341:0000000000330000
#096331:00000000000000000000003300000000
#096321:00000023
#097321:00000000000000000000000000001656
#097331:0000000000000000000000000000000000000000000000000000000000560056
#098321:56565600000000000000220000000000
#098331:0056005600000000000000000000000000000000000000000000000000000000
