This file was generated by Ched 2.7.0.0.
#TITLE ""
#ARTIST ""
#DESIGNER ""
#DIFFICULTY 0
#PLAYLEVEL
#SONGID ""
#WAVE ""
#WAVEOFFSET 0
#JACKET ""
#REQUEST "ticks_per_beat 480"
#00002: 4
#BPM01: 170
#00008: 01
#TIL00: ""
#HISPEED 00
#MEASUREHS 00
#00118:14
#00114:0000000000000014
#00018:0000000000000014
#0041a:00140000
#00416:00000000000000140000000000000000
#00412:0000000000140000
#00414:14
#0091b:0000001300000000
#00912:00130000
#0111b:0000001300000000
#01115:13
#01112:00130000
#01118:0013000000000000
#0171b:13
#01715:0013000000000000
#01718:00130000
#01712:0000001300000013
#01710:41
#01818:13000013
#01815:0013000000130000
#01812:0000000000000013
#0181b:00131300
#01915:0013000000001300
#01918:0000000000130000
#0191b:13
#01912:0000000000000013
#0241b:0013
#02412:13
#02414:0000000000242400
#02418:0024240000000000
#02515:0000130000130013
#02518:00000013
#0251a:1400001400000000
#0261b:1313
#02612:0013000013000000
#02618:0000130000000013
#02615:0000001300001300
#0291b:13
#02918:00000013
#02912:0000001300000000
#02910:41
#03015:0013000000130000
#03018:00001323
#03012:0000000000000023
#0301b:0000000000000023
#0321b:00001300000000002300000000333333
#03218:00130013
#03215:0000001300000000
#03212:0023
#03312:0013000000000000
#03315:00131300
#03318:0000001300000000
#03317:0000000000000015
#0331b:23
#03418:0015000000001300
#03419:0000001500000000
#03412:0000000000130000
#03415:0000000000000013
#0351b:1313000000000000
#03518:0000001300000013
#03515:00130000
#03512:0000000013000013
#03615:00001300000000000000000000130000
#03618:0000130000000013
#0361b:00000013
#03716:0014
#03714:00000000000000000000001400000000
#03712:2600000000000014
#0371a:0000000000000014
#0371b:0000001300000000
#03915:00001300000013000000001400000000
#03918:00130000
#03912:0000000013000014
#03917:0000000000000014
#0391a:00000000000000000000001400000000
#0531a:1400001400140000
#05312:00141400
#05315:00000013
#05318:00000000000000000000000000130000
#05412:1400001400140000
#0541a:00141400
#05418:00000013
#05415:00000000000000000000000000130000
#05514:0014001400140000
#05518:24242424
#05712:00130000
#0571b:0000130000000013
#05716:2400000000000013
#0601a:0000000000140014
#06012:00000014
#06018:0013000000000000
#06015:0000001300000000
#0591b:13
#05915:0013
#0591a:0000000000000024
#05912:0000000000000024
#06312:1300000000000014
#06312:0000000000000024
#06318:0013
#0631a:0000000000000024
#06310:41
#04018:0015000015000000
#04013:00000000001500000000000000000000
#04015:0000000000130000
#04012:00000033
#00214:14
#00218:0000000000000014
#00318:14
#00314:0000000000000014
#03115:0000000000000013
#0311b:00130000
#03118:0013
#07112:0000130000000024
#07119:0000000000130000
#07116:00000013
#0711a:0000000000000024
#06815:0000001300000013
#06818:0000130000130000
#06812:0023000000002300
#0681b:0023
#06518:0000000013000013
#06512:13000013
#06515:0000000000130000
#0651f:11
#06712:1313
#06715:00130000
#0671b:0000001300000000
#06718:0013000000000000
#0661b:0000001300000000
#06618:00130000
#06615:0013000000000000
#09812:0016000000000000
#00516:0000000000000014
#00612:14
#00616:00000014
#0061a:24
#00712:14
#00716:0000000000000014
#0071a:24
#01018:13
#0101b:00130000
#01012:0000001300000000
#01015:0013000000000000
#01512:0000001300000000
#01518:13
#0151b:00130000
#01515:0013000000000000
#01415:13
#01412:00130000
#0141b:0000001300000000
#01418:0013000000000000
#01219:0000000000001313
#01214:00000000140000000000000000130000
#0121a:14
#01215:0014
#01217:0014000000000000
#01218:0000001400000000
#01212:0000000000140000
#01616:0013000000000024
#01615:00000000001300000000000000000000
#01614:0013
#01613:00000000000000000000001300000000
#01612:0000000000000013
#0161a:0024000000000000
#01619:00000000002400000000000000000000
#01618:0024
#01617:00000000000000000000002400000000
#0201a:14
#02014:0014000000000000
#02018:00140000
#02012:0000001400000000
#02017:00000034
#02112:13
#02118:0013000000000000
#02115:00130000
#0211b:0000001300000013
#02215:13000013
#02218:0013000000130000
#0221b:0000001300000013
#02212:00131300
#02315:16
#02312:00130000
#02318:0000001300000000
#0231b:0000000000130000
#02319:00000033
#02718:0000130000130013
#02715:00000013
#02712:1400001400000000
#02812:1313
#0281b:0013000013000000
#02815:0000130000130013
#02818:0000001300001300
#0381a:0014000000000000
#03816:0000003414340000
#03818:00340034
#0411b:0013000000000000
#04118:00131300
#04115:0000001300000000
#04114:0000000000000015
#04112:23
#04110:41
#04213:0015000000000000
#04212:0000001500000000
#0421b:0000000000130000
#04215:00000013
#04218:0000000000000013
#04312:1313000000000000
#04315:0000001300000013
#04318:00130000
#0431b:0000000013000013
#04418:00001300000000000000000000130000
#04415:0000130000000013
#04412:00000013
#04516:0014
#04518:26000000000000000000001400000000
#0451a:0000000000000014
#04512:0000001300000014
#04612:0014000000000000
#04616:0000003414340000
#04614:00340034
#0471a:0000000000000014
#04715:0000001300000014
#04717:00000000000000000000001400000000
#0471b:1313
#04712:00000000000000000000001400000000
#04813:0015000015000000
#04818:00000000001500000000000000000000
#04816:00000024
#05812:0000001300130000
#05814:0013000000000000
#05815:00000013
#05818:0000000000000013
#05819:0013000000000000
#05817:0000001300000000
#0621b:0000001300130000
#06219:0013000000000000
#06218:00000013
#06215:0000000000000013
#06214:0013000000000000
#06216:0000001300000000
#06112:0000000000000013
#06117:0000000000000013
#06116:24
#06415:0013000000000000
#06418:0000001300000000
#06414:00000013
#06419:00000013
#0691b:1313
#06918:00130000
#06912:0000001300000000
#06915:0013000000000000
#07018:0000001300000013
#07015:0000130000130000
#0701b:0023000000002300
#07012:0023
#07215:00000013
#07212:00000000000000000000000000333333
#0731b:0013000000000000
#07318:00131300
#07315:0000001300000000
#07312:23
#07314:0000000000000025
#0731f:21
#07310:0000000000000041
#0741b:0000000000130000
#07415:00000013
#07418:0000000000000013
#07413:0025000000000000
#07412:0000002500000000
#07512:1313000000000000
#07515:0000001300000013
#07518:00130000
#0751b:0000000013000013
#07618:00001300000000000000000000130000
#07615:0000130000000013
#07612:00000013
#07716:0014
#07718:26000000000000000000001400000000
#0771a:0000000000000014
#07712:0000001300000014
#07918:0013001300000000
#07915:0000130000000014
#0791a:0000000000000014
#07917:00000000000000000000001400000000
#0791b:0013
#07912:00000000000000000000001400000000
#07812:0014000000000000
#07816:0000003414340000
#07814:00340034
#08112:0013000000000000
#08115:00131300
#08118:0000001300000000
#0811b:23
#08117:0000000000000025
#08212:0000000000130000
#08218:0025000000001300
#08215:0000000000000013
#08219:0000002500000000
#0831b:1313000000000000
#08318:0000001300000013
#08315:00130000
#08312:0000000013000013
#08415:00001300000000000000000000130000
#08418:0000130000000013
#0841b:00000013
#08516:0014
#08514:00000000000000000000001400000000
#08512:2600000000000014
#0851a:0000000000000014
#0851b:0000001300000000
#08510:41
#0861a:0014000000000000
#08616:0000003414340000
#08618:00340034
#08712:1300000013000014
#08717:0000000000000014
#08715:00000000000000000000001400000000
#0871a:00000000000000000000001400000000
#08718:0000001300000000
#0901b:0000001300000000
#09012:00130000
#09018:26
#0921b:0000001300000000
#09215:13
#09212:00130000
#09218:0013000000000000
#0931a:14
#09314:00000000140000000000000000130000
#09315:0014
#09319:0000000000001313
#09317:0014000000000000
#09318:0000001400000000
#09312:0000000000140000
#09118:13
#0911b:00130000
#09112:0000001300000000
#09115:0013000000000000
#09612:0000001300000000
#09618:13
#0961b:00130000
#09615:0013000000000000
#09515:13
#09512:00130000
#0951b:0000001300000000
#09518:0013000000000000
#09716:0013000000000000
#09715:00000000001300000000000000000000
#09714:0013
#09713:00000000000000000000001300000000
#0971a:0024000000000000
#09719:00000000002400000000000000000000
#09718:0024
#09717:00000000000000000000002400000000
#08018:00000000002500000000130000000000
#08013:0025000025000000
#0801b:00000033
#0561a:2424242424240000
#05612:2424242424240000
#08819:0024000024000024
#08813:00000000002400000000002400000000
#08912:0026000026000026
#08918:00000000002600000000002600000000
#01315:26
#09415:26
#00816:24
#0491a:00343400
#0501a:00343400
#05112:00343400
#05212:00343400
#0255a:1400001400000000
#0295b:53
#02958:00000053
#02952:0000006300000000
#03055:0063000000000000
#03258:00000053
#03355:0053
#0335b:13
#03357:0000000000000015
#03552:0063
#03752:00160000
#04152:13
#04158:0063
#04154:0000000000000015
#0535a:14
#05452:14
#05756:14
#06156:00140000
#06055:0000001300000000
#06058:0013000000000000
#05958:00130000
#0595b:53
#05955:0013
#04058:0045000045000000
#04053:00000000003500000000000000000000
#04055:0000000000530000
#04856:00000014
#04853:0035000035000000
#04858:00000000004500000000000000000000
#07152:00630000
#06752:0053
#06756:0000000000000013
#06552:63
#09058:16
#09852:0066000000000000
#08952:0016000016000016
#08958:00000000001600000000001600000000
#01355:00160000
#0235b:0000000000230000
#02358:0000005300000000
#02752:1400001400000000
#03458:0015000000000000
#03459:0000001500000000
#0385a:0054000000000000
#03856:0024
#04253:0015000000000000
#04252:0000001500000000
#0435b:0053
#04652:0064000000000000
#04656:0024
#04558:00160000
#0475b:53
#06352:63
#06358:0013
#06355:00130000
#06455:0013000000000000
#06458:0000001300000000
#0695b:0063
#06957:0000000000000013
#07255:00000063
#07358:0063
#07352:13
#07354:0000000000000015
#0755b:0053
#07852:0064000000000000
#07856:0024
#08155:0053
#0815b:13
#08157:0000000000000015
#08352:0063
#0865a:0054000000000000
#08656:0024
#08752:63
#07758:66
#07755:00160000
#08552:56
#08555:00160000
#07453:0015000000000000
#07452:0000001500000000
#08053:0035000035000000
#08058:00000000004500000000630000000000
#08258:0015000000000000
#08259:0000001500000000
#08859:0014000014000014
#08853:00000000001400000000001400000000
#09455:00160000
#0315b:00530000
#03158:0053
#00952:1c
#004370:00000013
#004380:00000000000000000000000000330000
#004390:0000000000000033
#0043a0:00000000000000000000000000000033
#0053b0:23
#008360:14
#009320:2c
#009320:0013
#009330:00000000000000000033000000000000
#009340:0000000000330000
#009350:00000000000000000000003300002300
#0103b0:0013
#0103a0:00000000000000000033000000000000
#010390:0000000000330000
#010380:00000000000000000000003300002300
#011350:0013
#011340:00000000000000000033000000000000
#011330:0000000000330000
#011320:00000000000000000000003300002300
#013350:16260000
#0133b0:0013
#0133a0:00000000000000000033000000000000
#013390:0000000000330000
#013380:00000000000000000000003300002300
#014320:0013
#014330:00000000000000000033000000000000
#014340:0000000000330000
#014350:00000000000000000000003300002300
#015380:0013
#015390:00000000000000000033000000000000
#0153a0:0000000000330000
#0153b0:00000000000000000000003300002300
#0173b0:00001323
#0193b0:00132300
#0203a0:0014
#020370:00000034
#020360:0000000000000024
#021320:00001323
#023380:0000001300000023
#0233b0:0000000000330000
#023390:00000033
#0293b0:13
#029380:00230000
#029320:0000001300000000
#029350:0000000000230000
#029380:00000013
#0303b0:23
#030350:0013000000000000
#030320:0000002300000000
#0313b0:00130023
#031380:0033
#032380:00000013
#0323b0:00000000000000000000000000333333
#0333b0:23
#033350:0013
#033320:00000000000000000000002300000000
#035320:0013
#035350:00000000000000000000002300000000
#0363b0:0000001300230000
#036351:0000001300230000
#037321:16260000
#0383a1:0014000000000024
#038381:00340034
#038361:0000003454340000
#040351:0000000000130000
#040321:0000000000003333
#041321:23
#041381:0013
#0413b1:00000000000000000000002300000000
#0433b1:0013
#043381:00000000000000000000002300000000
#044321:0000001300230000
#044380:0000001300230000
#045380:16260000
#046320:0014000000000024
#046340:00340034
#046360:0000003454340000
#0473b0:13
#047380:00230000
#0493a0:14343400
#049360:00000034
#050360:34
#0503a0:00343424
#051320:14343400
#051360:00000034
#052360:34
#052320:00343424
#056360:00000000000000000000000014343434
#057360:24
#057320:00000000000000001353535323000000
#057330:0000000000000000000000000000000000530053005300530000000000000000
#0593b0:13
#059380:00230000
#061360:14240000
#0613b0:00000000000000001353535323000000
#0613a0:0000000000000000000000000000000000530053005300530000000000000000
#063320:13
#063350:00230000
#065320:13
#065360:00230000
#066350:0000000013230000
#0663b0:0000000000001323
#067320:0013
#067360:0000000000003323
#0693b0:0013
#069370:0000000000003323
#071320:00130000
#071360:0023
#072350:00000013
#072320:00000000000000000000000000333333
#073320:23
#073380:0013
#0733b0:00000000000000000000002300000000
#0753b0:0013
#075380:00000000000000000000002300000000
#076320:0000001300230000
#076381:0000001300230000
#077381:16
#077351:00260000
#078321:0014000000000024
#078341:00340034
#078361:0000003454340000
#080381:0000000000130000
#0803b1:0000000000003333
#0813b1:23
#081351:0013
#081321:00000000000000000000002300000000
#083321:0013
#083351:00000000000000000000002300000000
#0843b1:0000001300230000
#084350:0000001300230000
#085320:16
#085350:00260000
#0863a0:0014000000000024
#086380:00340034
#086360:0000003454340000
#087320:13
#087350:00230000
#090320:0013
#090330:00000000000000000033000000000000
#090340:0000000000330000
#090350:00000000000000000000003300002300
#0913b0:0013
#0913a0:00000000000000000033000000000000
#091390:0000000000330000
#091380:00000000000000000000003300002300
#092350:0013
#092340:00000000000000000033000000000000
#092330:0000000000330000
#092320:00000000000000000000003300002300
#094350:16260000
#0943b0:0013
#0943a0:00000000000000000033000000000000
#094390:0000000000330000
#094380:00000000000000000000003300002300
#095320:0013
#095330:00000000000000000033000000000000
#095340:0000000000330000
#095350:00000000000000000000003300002300
#096380:0013
#096390:00000000000000000033000000000000
#0963a0:0000000000330000
#0963b0:00000000000000000000003300002300
#097320:00000000000000000000000000001656
#097330:0000000000000000000000000000000000000000000000000000000000560056
#098320:56565600000000000000240000000000
#098330:0056005600000000000000000000000000000000000000000000000000000000
