This file was generated by Ched 2.7.0.0.
#TITLE ""
#ARTIST ""
#DESIGNER ""
#DIFFICULTY 0
#PLAYLEVEL
#SONGID ""
#WAVE ""
#WAVEOFFSET 0
#JACKET ""
#REQUEST "ticks_per_beat 480"
#00002: 4
#BPM01: 170
#00008: 01
#TIL00: ""
#HISPEED 00
#MEASUREHS 00
#00119:12000000000000000000000000000012
#00115:0000000000000012
#00019:0000000000000012
#00015:00000000000000000000000000000012
#00217:0000000000120000
#00215:12
#00216:0000000000000012
#00218:00000000000000000000000000000012
#0041a:14140000
#00417:00000000000000140000000000000000
#00414:00000000000000000000140000140000
#00416:00001400000000000000000014000014
#00418:0000000000000014
#00415:0000001200000000
#00412:14000000000000000012000000000000
#00512:0012000000000000
#00513:0000001200000000
#00514:0000000000120000
#00515:0000000000000012
#0051a:24
#0081a:14
#00812:2800000000120000
#0091b:00001300000000000000001300000000
#00919:00130000
#00914:00000000001300000000000000000000
#00916:0013000000000000
#00917:0000001300000013
#00918:00000000000000000013000000000000
#00915:0000000000161600
#00912:0000000013000013
#01612:00180000160000140000000000002400
#0161a:0024000000140000
#01618:00000000002400000000000000160000
#01619:13
#01616:0024
#01614:00000000000000000000002400000000
#01716:1813000000130013
#0171b:00130013
#01719:0000001300000000
#01712:13131313
#01710:41
#01812:13131313
#01819:0013000000000000
#01816:00000000000013000013000000001300
#0181b:13
#0181a:0000000000242400
#02012:1300000000002313
#0201b:0000231313000000
#02017:13
#02015:00130000000000000000000000000000
#02016:0013
#02018:00000000000000000013000000000000
#02019:0023000000000000
#02014:0000000000230000
#02412:00002400240000000013000000001300
#02416:13000000000000141400000000000000
#0241b:00130000000013000000000000000000
#02418:0000130000000013
#02415:00000013
#0241a:0000000000242400
#02317:0000000000130013
#02312:1c00130000000013
#0231b:00130013
#02318:0000001300000000
#02315:00000000000000130000000000000000
#02316:00000013
#02512:0000130000130000
#0251b:1300001300001300
#02514:0013000013000013
#02516:1400001400001400
#02519:0000000000000013
#0261b:13001300000000000013000000001300
#02614:00130000
#02612:1300001300242400
#02617:0000001300001300
#02615:0013
#02616:0014000000000013
#02619:00130000
#02912:0013131300000013
#0291b:1300000013131300
#02916:1400001400001413
#02910:41
#03012:0013000013002525
#03018:00000000000000000013000000000000
#0301b:00131300
#03016:1314000000000000
#03017:0000131300000000
#03015:0000000000160000
#03019:0000000000002525
#0311b:0000130000130000
#03112:001c130000130014
#0311a:0000000000000014
#03118:0013
#03115:0013
#0321a:0000000014000000000000000000000024000000000000000000000000343434
#03212:0014000024001300
#03215:0000131300000000
#03218:0000000000001300000013000000130000000000000000000000003400000000
#03216:0000000000000000000000000000000000000000000000000034000000000000
#03217:00000000000000000000000000340000
#03219:0000000000000034
#0331b:00001300000000000000001300000000
#03314:00130000
#03317:0000001313000000
#03312:2613000013000015
#03315:00000000000000120000000000000000
#03319:00130000
#03414:0015000000001600
#03416:0000001500000016
#03419:0013000000000000
#0341b:0000001300130000
#03412:0000000000160000
#03418:1313
#0341a:00130000
#03512:13000000000000001300001300000000
#03518:1600001300000000
#0351b:0013000013000000
#03515:00001300160000130000000000000000
#0351a:0000000000000014
#0361a:0014000000001400
#03616:13001300130013000000000000140000
#03612:0000130000130014
#03617:0013
#0361b:0000001300000000
#03717:0000131313140013
#0371b:0013
#03715:00000000000000000000001400000000
#03712:2c00001300000013
#03912:1300001313000013
#03917:0000001313000013
#03919:0000000000120000
#0391b:00001300130000000000001300000000
#03916:00001300130000000000001300000000
#03915:00000000000000000000000000120000
#03819:00130000
#03817:00000013
#0381b:0000000000000013
#03816:0000001200000013
#03818:0000001200000000
#0381c:0012
#03812:0013000012001300
#03814:00130000
#04016:00001400001400001400001500000000
#0401b:0000000000130000
#04019:00000013
#04014:00000000000000000000000000150000
#0401a:0014000014000000
#04012:00000000001400000000000000000015
#04017:0000000000000013
#0531b:1300001300130013
#05316:00141414
#05312:00000000000013000000130000130000
#05412:1300001300130013
#05416:14141414
#0541b:00000000000013000000130000130000
#05516:0014001400140014
#05512:2c002c132c002c13
#0551b:0013000000130000
#05612:2600260026002600260026001c1c1c1c
#05618:2626262626260000
#05712:2c00140000000013
#0571a:00000014
#0571b:0000000000000013
#05812:0000000000130013
#05816:1314131400001300
#0581b:0013001300000000
#06015:00000000000000000000000000160000
#06016:1414141414141400
#06013:0000000000000000000000000000001a
#06014:0000000000000018
#05912:1313
#0591b:13130000
#05917:0014000000000000
#05915:0000001400000000
#05916:0000000000000024
#06418:00000000000000000000001300000013
#06412:00000013
#0641b:00000000000000000000000000130000
#06415:0000000000130013
#06416:1414141414000000
#00314:12
#00318:0000000000000012
#00316:00000000000000000000000000000012
#0031a:12
#09812:001c000000000000
#01212:0000130000000016
#0121b:00000000000000130000000000000000
#01218:000000000000000000000000000000000000000000000000000000000000130000001300000000160000000000160000
#01215:000000000000260000000000000000260000000000000000260000000000000013000000130000000000000000000000
#01318:0016000000000000
#01316:0000001400000013
#01312:26000000000000000000001300000000
#01315:00000000000000000013160016000000
#0131b:0000000013000013
#00613:0012000000000000
#00614:0000001200000000
#00615:0000000000120000
#00616:0000000000000012
#0061a:24
#00714:0012000000000000
#00715:0000001200000000
#00716:0000000000120000
#00717:0000000000000012
#0071a:24
#0191b:1313001300000000
#01917:00130000
#01912:0000000013130013
#01916:00000013
#02112:18130013
#02117:0013000000130013
#02114:0000001300000000
#0211b:13131313
#0221b:13131313
#02214:0013000000000000
#02212:1300000000242400
#02217:00000000000013000013000000001300
#0271b:0000130000130000
#02716:1400001400001400
#02712:1300001300001300
#02719:0013000013000013
#02714:0000000000000013
#02812:1313000014140014
#02814:00130000
#02816:0024001300000000
#0281a:00001424
#02817:0000000000240014
#02818:00000000240000130000000000000000
#0281b:13
#02815:00000014
#05115:00130000001300001600000000000000
#05118:00001300000013000000000000000013
#05112:00000013000000130000000000001600
#05114:0000000000160000
#0511b:23000000130000000013000000000000
#0511a:00000000000000000000001300000000
#05119:00000000000000000000000000130000
#05113:00000016
#01118:0013000000000000
#01112:00001300000013000000000000000013
#01117:00000000001300000000000000001300
#01115:00130000
#0111b:13000013
#01119:0000001300000000
#04112:00001300000000000000001300000000
#04119:00000000130000120000000000001500
#04116:0000001313000000
#0411b:0013000013000000
#04114:00130000
#04118:26
#04110:41
#04217:0015000000000000
#04215:1300001513000000
#04214:0013000000000016
#04212:0000001300130000
#04218:0000000000160000
#04216:00000016
#04213:00130000
#0431b:13000000000000001300001300000000
#04312:1613000013000014
#04315:0000161300000000
#04318:00001300000000130000000000000000
#04412:0014001300001400
#04417:1313131300000000
#0441b:0000130000130000
#0441a:0000000000000014
#04416:00000000000000001300000000140000
#04516:0000131313000013
#0451b:0000001300000013
#04512:2c13
#04517:00000000000000000000001400000000
#04515:0000000000140000
#04614:00130000
#0461b:0013000000001300
#04616:0000001200001300
#04612:0000000012000013
#04617:0000000000000013
#04619:00130000
#04618:0000001200000000
#0461c:0012
#04717:00000000000013000000001300000000
#04716:0000000013000013
#04715:0000000000120000
#04712:00000000000013000000001300000000
#0471b:0000000013000013
#04719:00000000000000000000000000120000
#04812:130000000000000000000000000000000000000000000000000000000000000000000000000000000000000000000000250000000000001500000000000000000000000000000000000000000000000000000000000000000000000000000000
#04814:00000000000018000015000000000000
#04819:000000000000000000000000000000000015000000000000000000000000000000000000000000000000000000000000000000000000000000000000000000000000000000000000000000000000000000000000000000000000000000000000
#04815:000000000000000000000000250000000000001500000000000000000000000000000000000000000000000000000000000000000000000000000000000000000000000000000000000000000000000000000000000000000000000000000000
#04817:00000015000000000000000000000000
#04816:000000000000000000000000000000000000000000000000000000000000240000000000000000000000000000000000000000000015000000000000000000000000000000000000220000000000000000000000000000000000000000000000
#04818:00000022
#07312:0013000000000000
#07318:26130000
#07316:0013001313000014
#07319:00000000000000120000000000000000
#07314:00130000
#0731b:0013
#0731a:0000000000000024
#0731f:21
#07310:0000000000000041
#07416:1414140014131313
#07412:0024000000130013
#0741b:00000013
#07414:0000002400000000
#07418:0000002400000000
#07515:0000161300000000
#07512:0000000013000000000000000000000000000013000000000000000000000000
#07516:1300000013000024
#0751b:00001300000000001300001300000000
#07518:00000000000000130000000000000000
#07517:0000000000000000000000000000000000000000000000000013000000000000
#0761b:13130000
#0761a:000000000000000000000000000000000000000000000000000000000000000000000000140000000000000000000000000000000014000000000000000000000000000000000000000000000000000000000000140000000000000000000000
#07616:000000000000000000000000240000000000000000000000000000000000000000000000130000000000001400000000000000000000000000000000000000000000000000000000000000000000140000000000000000000000000000000000
#07612:13130014
#07618:0014
#0771b:0000001313000000
#07712:2c00000013000013
#07719:00000000000000000000001300000000
#07714:00000000000000000000001300000000
#07716:0000000000140013
#07717:0000131300000000
#0791b:1300001313000000
#07916:0013001300000000
#07912:13000000130000001300001200000000
#07917:00000000000000000000001200001200
#0791c:0000000000000012
#07914:0000000000130000
#07919:00000000000000000000000000130000
#08818:0026160026160026
#08812:00160000002600160000002600160000
#08916:00000000182800000000182800000000
#08912:00182800000000182800000000182800
#07115:00130000000000000000000000000000
#07119:0013000000000000
#07113:00000013000000000013000000000000
#0711a:0000130000130024
#07112:00000000001300130000000000002400
#0711b:0000001313000000
#07114:00000000000000000000001300000000
#07118:00000013
#07116:00000000000000000000000000130000
#07117:13
#0651b:1300130013000013
#06519:0000000000130000
#06517:00000013
#0651f:11
#06512:24000000240000002400002400002400
#06712:1300000013000013
#06714:0013000000000000
#06716:00130000
#06718:0000001300000000
#0671a:24000000240000002400002400002400
#06812:0013001300000013
#06816:0000130000130000
#06818:0013
#06814:00000013
#0681a:0024240000242400
#09712:001c00001c00001c00001c26001c0000
#0971a:14
#09718:0026000000000000
#09716:00000000002600000000000000000000
#09714:0026
#06917:1313000013001300
#0691b:0000131300130013
#06912:24000000240000002400002400002400
#0631b:1313
#06312:13130000
#06315:0014000000000000
#06317:0000001400000000
#06316:0000000000000024
#06310:41
#06617:00001313
#0661b:0000000000130013
#06612:00002400240000002400002400002400
#07017:0013000013000000
#07019:0000130000130013
#0701b:0000001300001300
#07012:00002400240000002400002400002400
#0811b:0013000000000000
#08115:00000000130000120000000000000000
#08117:0013001313000000
#08119:00130000
#08112:2600000013000024
#08116:0000000000000014
#08412:130000000000000000000000000000000000000000000000130000000000000000000000140000000000000000000000000000000014000000000000000000000000000000000000000000000000000000000000140000000000000000000000
#08416:000000000000000000000000240000000000000000000000000000000000000000000000000000000000001400000000000000000000000000000000000000000000000000000000000000000000140000000000000000000000000000000000
#0841a:00000014
#08414:0014
#08417:0000001300000000
#0841b:13130000
#08514:00000000000000000000001300000000
#08514:00000000000000000000001300000000
#08519:00000000000000000000001300000000
#08519:00000000000000000000001300000000
#08516:0000131300140000
#08516:0000000000140000
#08512:2c00001313000000
#0851b:0000000013000013
#08517:0000000000000013
#08510:41
#08614:0000130000000013
#08619:0000130000000013
#08616:0000001200001400
#08612:0012
#08618:0000001200000000
#0861c:0012
#0861b:0013000000000000
#0871b:0013
#08717:00000000000000000000001200001200
#0871c:00000000000000000000001200000000
#08712:0000000013000012
#08719:0000000000130000
#08715:0000001300000000
#08718:0000001300000000
#08714:00000000000000000000000000130000
#0621b:0000000000130013
#06217:13130013
#06216:0014001400000000
#06212:0013001300000000
#0611b:0000000000000013
#06112:2c00000014001413
#08015:0000000000160000
#0801a:00002400000000002400000000130000
#08014:00000016
#0801b:00000000000000000000001300000000
#08019:00000000000000000000000000000013
#08013:0000000000000016
#08016:00002400002400002400000000000000
#08012:00000000002400000000000000000000
#07818:0000001200000000
#0781c:0012
#07816:0000001200001400
#07812:0013000012000000
#07814:0000130000000013
#07819:0000130000000013
#05215:00001300000013001600000000000013
#05212:23000000130000000013000000000000
#05217:00000016
#05218:00130000001300000000000000001600
#05214:00000000000000000000000000130000
#05213:00000000000000000000001300000000
#05216:0000000000160000
#0521b:00000013000000130000000000000000
#04918:0013001300000013
#04912:00130000001300000000000000000016
#04913:00000000000000000000000000160000
#04919:00000013
#04914:00000000000000000000001600000000
#0491a:0000000000130000
#04915:00000013000000130016000000000000
#0491b:23131300
#05015:00000013000000130013000000001600
#05012:00130000001300000000000000000013
#05013:00000000000000000000000000130000
#05016:00000016
#05014:00000000000000000000001300000000
#05017:0000000000160000
#05018:0013001316000000
#0501b:23130000
#01515:0013000000000000
#0151b:00001300000013000000000000000013
#01516:00000000001300000000000000001300
#01518:00130000
#01512:13000013
#01514:0000001300000000
#01519:13
#01012:00001300000000000000001300000000
#0101b:1300000013000013
#01015:00000000000000000013260026000000
#01017:0013000000000000
#01019:00000000001300000000000000000000
#01016:13000000000013000000000000000013
#01014:00130000
#0141b:00001300000000000000001300000000
#01412:1300000013000013
#01418:00000000000000000013000000000000
#01416:0013001400000000
#01414:00000000001300000000000000000000
#01419:00130000
#01417:1300000000000013
#01415:0000000000262600
#0721b:00000013
#07212:0000000000000000000000000000000000000000000000000000000000343434
#07216:0000000000000000000000000000000000000000000000000034000000000000
#07215:00000000000000000000000000340000
#07214:0000000000000000000000000000000000000000000000000000003400000000
#07213:0000000000000034
#09316:00002800140000142800000000000000
#09314:000000000000000000000000000000140014000000000000
#09318:000000000000000000000000000000001400140000160000
#09312:00000000002800000000000000160016
#09412:0016000013180014
#09417:0000000000000013
#0941a:00000000000000000000001400000000
#09416:00000000000014000014000018000000
#09418:26
#09617:00001400001400000000000000000000
#09612:00001300000013000000000000000014
#09614:00140000
#09616:0000000000000014
#0961a:1400001400001400
#09512:00001400000000000000001428000000
#0951b:1313
#09516:14000000000014000014280000000013
#0951a:0000000000000014
#09517:0013000000000000
#09519:00000000001300000000000000000000
#09514:00140000
#08216:1414140014000000
#0821b:0000000000130013
#08217:0000000000131313
#08212:00000013
#0821a:0024000000000000
#08218:0000002400000000
#08214:0000002400000000
#08318:0000001300000000
#0831b:0000000013000000000000000000000000000013000000000000000000000000
#08315:00000000160000130000000000000000
#08317:1313
#08312:00001300000000001300001300000000
#08316:0000000000000000000000000000000000000000000000000013000024000000
#09016:00000000000014000014180000001300
#0901b:0013
#0901a:0000000000000014
#09012:2c001400000000000000001418000000
#09017:0013000000000000
#09019:00000000001300000000000000000000
#09014:00140000
#09117:00000000000000000000000000000013
#09116:14001300000014000014000028000000
#0911a:00001400000000000000001400000000
#09118:00140000
#09114:00000000001300000000000000000000
#09112:1300000013280014
#09212:1400001400001400
#0921b:0013001300000000
#0921a:00000000000000000000000000000014
#09216:0000000000000014
#09218:00140000
#09215:00001400001400000000000000000000
#0085a:14
#00852:5800000000220000
#01756:18
#0295b:53000053
#02952:0000006300000000
#02956:3400004400003423
#0315b:0000530000230000
#03152:0000630000230000
#03158:0053
#03155:0063
#03352:1600000053000035
#0335b:00000000000000000000005300000000
#0355a:0000000000000014
#0355b:0063
#03552:00000000000000000000006300000000
#0365a:0014000000000000
#0365b:0000005300000000
#03656:0000005300000000
#03657:0023
#0375b:00130000
#03752:5c
#03757:0000000000000023
#0535b:13
#05452:13
#05752:1c140000
#0575b:0000000000000053
#06157:00120000
#06152:5c00000000000063
#06056:0014001454540000
#0595b:00534300
#05952:63335300
#05955:0000002400000000
#05957:0024000000000000
#08858:0046000046000046
#08852:00000000003600000000003600000000
#0405a:0044000044000000
#04052:00000000003400000000000000000000
#04056:00004400003400004400000000000000
#09052:1c
#09852:006c000000000000
#01358:0026000000000000
#01352:66360000
#08952:0018000018000018
#08956:00000000001800000000001800000000
#02152:18
#02355:00000000000000230000000000000000
#02556:3400003400000000
#0255b:2300002300000000
#02756:4400004400000000
#02752:2300002300000000
#03858:0000005200000000
#03856:0000006200000000
#03852:0022
#0385c:0022
#03456:0000003500000000
#03454:0035000000000000
#0165a:0014000000000000
#01658:00000000001400000000000000000000
#01656:0014
#01654:00000000000000000000001400000000
#01652:0000000000000014
#03052:0063000000000000
#03057:00230000
#03056:0044000000000000
#0415b:0063
#04152:00000000000000000000006300000000
#04158:16
#04159:0000000000000045
#04255:0000004500000000
#04257:0045000000000000
#04352:0000000053000014
#0435b:00000000000000000000005300000000
#04452:0014006300000000
#04456:0023
#04457:0000006300000000
#04552:6c130000
#04556:0000000000000023
#04854:00000000000028000055000000000000
#04856:000000000000000000000000000000000000000000000000000000000000540000000000000000000000000000000000000000000025000000000000000000000000000000000000120000000000000000000000000000000000000000000000
#04859:000000000000000000000000000000000025000000000000000000000000000000000000000000000000000000000000000000000000000000000000000000000000000000000000000000000000000000000000000000000000000000000000
#04855:000000000000000000000000550000000000002500000000000000000000000000000000000000000000000000000000000000000000000000000000000000000000000000000000000000000000000000000000000000000000000000000000
#04857:00000055000000000000000000000000
#04852:000000000000000000000000000000000000000000000000000000000000000000000000000000000000000000000000550000000000002500000000000000000000000000000000000000000000000000000000000000000000000000000000
#04858:00000012
#05856:2334233400000000
#0585b:0053005300000000
#07356:0063
#0735b:0063
#07358:16
#0735a:0000000000000044
#07556:0000000053000014
#0755b:00000000000000000000005300000000
#07557:0000000000000000000000000000000000000000000000000023000000000000
#07552:0000000000000000000000000000000000000023000000000000000000000000
#07656:000000000000000000000000140000000000000000000000000000000000000000000000530000000000002400000000000000000000000000000000000000000000000000000000000000000000000000000000000000000000000000000000
#07658:0054
#0765a:000000000000000000000000000000000000000000000000000000000000000000000000540000000000000000000000000000000024000000000000000000000000000000000000000000000000000000000000000000000000000000000000
#07752:6c430000
#07756:0000000000000053
#0655b:53
#06752:0053
#09758:0016000000000000
#09756:00000000001600000000000000000000
#09754:0016
#09752:00000000000000000000001600000000
#0635b:53436300
#06352:00633300
#06355:0024000000000000
#06357:0000002400000000
#06456:0014001400000000
#08157:0053
#08152:1600000053000034
#06256:0044004400000000
#06257:23230000
#06252:0063006300000000
#04656:0000006200000000
#04652:0022
#04658:0000005200000000
#0465c:0022
#07858:0000005200000000
#0785c:0022
#07856:0000006200000000
#07852:0022
#08656:0000006200000000
#08652:0022
#08658:0000005200000000
#0865c:0022
#07456:0000000000630063
#0745b:00000063
#07454:0000001400000000
#07458:0000001400000000
#07452:0034000000000000
#08456:000000000000000000000000140000000000000000000000000000000000000000000000000000000000002400000000000000000000000000000000000000000000000000000000000000000000000000000000000000000000000000000000
#08454:0064
#08452:000000000000000000000000000000000000000000000000000000000000000000000000640000000000000000000000000000000024000000000000000000000000000000000000000000000000000000000000000000000000000000000000
#08457:0000006300000000
#00952:4c
#01255:00003600004600003600000000000000
#02452:00140000
#0245a:00000014
#08552:5c
#0855b:00330000
#08557:0000000000000063
#09452:0026000000000000
#09458:56460000
#09356:0048000048000000
#09352:00000000003800000000000000000000
#08056:00003400004400003400000000000000
#0805a:0034000034000000
#08052:00000000004400000000000000000000
#08357:0063
#08352:00000000000000000000006300000000
#0835b:0000000000000000000000000000000000000023000000000000000000000000
#08356:0000000000000000000000000000000000000000000000000023000014000000
#08257:0000000000530053
#08252:00000053
#0825a:0044000000000000
#08258:0000001400000000
#08254:0000001400000000
#008320:1800000000520000
#009320:2c
#0113b0:00000000000000001323000000000000
#011351:00000000000000000013230000000000
#011380:00000000000000000000132300000000
#011321:00000000000000000000001323000000
#012371:13
#012381:0033000000000000000000000000000000000000000000000000000000000000
#012391:00330000000000000000000000000000
#0123a1:0000003300000000000000000000000000000000000000000000000000000000
#0123b1:0023000000000000
#013321:16260000
#013381:0056000000000000
#015321:00000000000000001323000000000000
#015380:00000000000000000013230000000000
#015351:00000000000000000000132300000000
#0153b0:00000000000000000000001323000000
#017370:0013
#0173b0:0000000000230000
#018370:00130000
#0183b0:0000002300000000
#019370:1300002300000000
#019320:0033330000000000
#019360:0000000013000023
#0193b0:0000000000333300
#020370:0000132300000000
#020360:0000000000001323
#021360:0013
#021320:0000000000230000
#022360:00130000
#022320:0000002300000000
#023350:00000000000000130000000000000000
#023320:0000000000230000
#0253b0:13
#025360:00230000
#0253b0:0000001300000000
#025360:0000000000230000
#027320:13
#027370:00230000
#027320:0000001300000000
#027370:0000000000230000
#0293b0:13
#029360:0053230000000000
#029320:0000001300000000
#029370:0000000053230000
#0293b0:00000013
#029360:0000000000000053
#0303b0:23
#030320:0013002300000000
#030370:00530000
#0313b0:0000130000530000
#031380:00003323
#031321:0000130000530000
#031351:00003323
#032351:00000014
#032361:0000000000000000000000000000000000000000000000000034000000000000
#032371:00000000000000000000000000340000
#032381:0000000000000000000000000000000000000000000000000000003400000000
#032391:0000000000000034
#0323a1:0000000000000000000000000000000000000000000000000000000000343434
#0333a1:24
#033321:0013
#033361:00000000000000000000002300000000
#0333b0:00000000000000000000001300000000
#033370:0000000000000023
#0353b0:0013
#035370:00000000000000000000002300000000
#035321:00000000000000000000001300000000
#035361:0000000000000023
#0363b1:0000001300230000
#036371:0053
#036360:0000001300000000
#036320:0023
#037321:1c
#0373b1:00230000
#037371:0000000000000013
#0383b1:0023000000000000
#038381:0000001200220000
#0383c1:0052
#038360:0000001200220000
#038320:0052
#0413b0:0013
#041370:00000000000000000000002300000000
#041321:00000000000000000000001300000000
#041361:0000000000000023
#043321:0013
#043361:00000000000000000000002300000000
#0433b0:00000000000000000000001300000000
#043370:0000000000000023
#044320:0000001300230000
#044360:0053
#044371:0000001300000000
#0443b1:0023
#045320:1c230000
#045360:0000000000000013
#046320:0023000000000000
#046360:0000001200220000
#046320:0052
#046381:0000001200220000
#0463c1:0052
#0473b1:13
#047321:00230000
#047320:13
#0473b0:00230000
#048350:000000000000000000000000150000000000005500000000000000000000000000000000000000000000000000000000000000000000000000000000000000000000000000000000000000000000000000000000000000000000000000000000
#048390:000000000000000000000000000000000055000000000000250000000000000000000000000000000000000000000000000000000000000000000000000000000000000000000000000000000000000000000000000000000000000000000000
#048370:00000055000000000000000000000000
#048360:00000000001400240000000000000000
#048340:0000005800000000
#048320:000000000000000000000000000000000000000000000000000000000000000000000000000000000000000000000000150000000000005500000000000000000000000000000000000000000000000000000000000000000000000000000000
#048360:000000000000000000000000000000000000000000000000000000000000000000000000000000000000000000000000000000000055000000000000250000000000000000000000000000000000000000000000000000000000000000000000
#048340:00000000000000000055000000000000
#0573a0:00142400
#057380:00000000000000000000000000000000005400005400000000000000540000540000000000000000000000000000000000000000000000000000000000000000
#057390:0000000000000000005400000000005400000000000000000000000000000000
#057370:00000000000000000000000000000000000000540000540054005400005400000000000000000000000000000000000000000000000000000000000000000000
#057360:00000000000000000000000000000000000000000054000000000054000000000000000000000000000000000000000000000000000000000000000000000000
#057350:00000000000000000000000000000000000000000000005500550000000000000000000000000000000000000000000000000000000000000000000000000000
#057321:00001424
#057341:00000000000000000000000000000000000000000000000000000000000000000054000054000000000000005400005400000000000000000000000000000000
#057331:0000000000000000000000000000000000540000000000540000000000000000
#057351:00000000000000000000000000000000000000000000000000000000000000000000005400005400540054000054000000000000000000000000000000000000
#057361:00000000000000000000000000000000000000000000000000000000000000000000000000540055005500540000000000000000000000000000000000000000
#0573b1:0000000000000013
#058361:5300330053330023
#0583b1:0033003300003300
#059321:13230000
#059371:0054000000000000
#0593b0:00132300
#059350:0000005400000000
#059321:0013
#059361:00000023
#0593b1:0000000000000013
#0603b1:23
#060321:0013230000000000
#0603b1:0000001323000000
#060360:0014
#060320:0000000000230000
#060361:0000000000140000
#0603b1:00000023
#061321:1c
#061371:00220000
#0613a1:00001424
#061381:00000000000000000000000000000000000000000000000000000000000000000054000054000000000000005400005400000000000000000000000000000000
#061391:0000000000000000000000000000000000540000000000540000000000000000
#061371:00000000000000000000000000000000000000000000000000000000000000000000005400005400540054000054000000000000000000000000000000000000
#061361:00000000000000000000000000000000000000000000000000000000000000000000000000540000000000540000000000000000000000000000000000000000
#061351:00000000000000000000000000000000000000000000000000000000000000000000000000000055005500000000000000000000000000000000000000000000
#061321:0000000000000013
#062371:5300330053330023
#062321:0033003300003300
#0633b1:13230000
#063351:0054000000000000
#063320:00132300
#063370:0000005400000000
#0633b1:0013
#063371:00000023
#063321:0000000000000013
#064321:23
#0643b1:0013230000000000
#064321:0000001323000000
#0653b1:13
#065371:0023000000000000
#0663b1:0013002300000000
#066371:00330000
#067321:0013
#067361:00000023
#072371:00000014
#072361:0000000000000000000000000000000000000000000000000034000000000000
#072351:00000000000000000000000000340000
#072341:0000000000000000000000000000000000000000000000000000003400000000
#072331:0000000000000034
#072321:0000000000000000000000000000000000000000000000000000000000343434
#073321:24
#073361:0013
#073321:00000000000000000000002300000000
#0733b0:0013
#073370:00000000000000000000002300000000
#074360:0000000000130033
#0743b0:00000033
#0753b0:23
#075360:00000000000000001300002300000000
#075320:0000000000000000000000000000000000000053000000000000000000000000
#0753b1:00000000000000000000001300002300
#075371:0000000000000000000000000000000000000000000000000053000000000000
#0763a1:000000000000000000000000000000000000000000000000000000000000000000000000140000000000000000000000000000000054000000000000000000000000000000000000000000000000000000000000000000000000000000000000
#076361:000000000000000000000000000000000000000000000000000000000000000000000000000000000000005400000000000000000000000000000000240000000000000000000000000000000000000000000000000000000000000000000000
#076381:0054
#076360:0000001300000000
#076320:000000000000000000000000000000000000000000000000000000000000000000000000000000000000005300000000000000000000000000000000230000000000000000000000000000000000000000000000000000000000000000000000
#077320:1c230000
#077360:0000000000000013
#0773b0:00000000000000000000000000000053
#0783b0:0023000000000000
#078380:0000001200220000
#0783c0:0052
#078361:0000001200220000
#078321:0052
#0793b1:0013000000000000
#079371:00230000
#081371:0013
#0813b1:00000000000000000000002300000000
#081320:0013
#081360:00000000000000000000002300000000
#082370:0000000000130033
#082320:00000033
#083320:23
#083370:00000000000000001300002300000000
#0833b0:0000000000000000000000000000000000000053000000000000000000000000
#083321:00000000000000000000001300002300
#083361:0000000000000000000000000000000000000000000000000053000000000000
#084321:000000000000000000000000000000000000000000000000000000000000000000000000140000000000000000000000000000000054000000000000000000000000000000000000000000000000000000000000000000000000000000000000
#084361:000000000000000000000000000000000000000000000000000000000000000000000000000000000000005400000000000000000000000000000000240000000000000000000000000000000000000000000000000000000000000000000000
#084341:0054
#084370:0000001300000000
#0843b0:000000000000000000000000000000000000000000000000000000000000000000000000000000000000005300000000000000000000000000000000230000000000000000000000000000000000000000000000000000000000000000000000
#085320:1c
#0853b0:00230000
#085370:0000000000000013
#085320:00000000000000000000000000000053
#086320:0023000000000000
#086360:0000001200220000
#086320:0052
#086381:0000001200220000
#0863c1:0052
#0873b1:13
#087321:00230000
#087320:13
#0873b0:00230000
#092320:00000000000000001424000000000000
#092381:00000000000000000014240000000000
#092340:00000000000000000000142400000000
#0923a1:00000000000000000000001424000000
#093361:14
#093351:0034000000000000000000000000000000000000000000000000000000000000
#093341:00340000000000000000000000000000
#093331:0000003400000000000000000000000000000000000000000000000000000000
#093321:0024000000000000
#094381:16260000
#094321:0056000000000000
#0963a1:00000000000000001424000000000000
#096340:00000000000000000014240000000000
#096381:00000000000000000000142400000000
#096320:00000000000000000000001424000000
#097320:000000000000000000000000000000000000000000000000000000001c5c5c5c
#097330:0000000000000000000000000000000000000000000000000000000000000000000000000000000000000000000000000000000000000000005a005a005a005a
#098320:5c5c5c5c5c000000000000000000000000000000230000000000000000000000
#098330:005a005a005a005a0000000000000000000000000000000000000000000000000000000000000000000000000000000000000000000000000000000000000000
