This file was generated by Ched 2.7.0.0.
#TITLE ""
#ARTIST ""
#DESIGNER ""
#DIFFICULTY 0
#PLAYLEVEL
#SONGID ""
#WAVE ""
#WAVEOFFSET 0
#JACKET ""
#REQUEST "ticks_per_beat 480"
#00002: 4
#BPM01: 170
#00008: 01
#TIL00: ""
#HISPEED 00
#MEASUREHS 00
#00118:14
#00112:14
#00214:14
#0021a:14
#00318:14
#00312:14
#00414:14
#0041a:14
#00518:1414
#00614:1414
#00718:1414
#00814:1414
#0091a:1414
#00914:00140000
#01014:1414
#0101a:00140000
#01118:1414
#01112:00140000
#01212:1414
#01218:00140000
#01414:1414
#01418:00140000
#0151a:1414
#01514:00140000
#01612:1414
#01618:00140000
#0171a:1414
#01714:00140014
#01710:41
#01818:1414
#01812:00140000
#0381a:14
#03812:00140000
#03818:0014
#03814:00000014
#0331a:2414
#03314:00140000
#0571a:14
#05714:00140000
#05718:0014
#05812:14
#05818:00140000
#05814:0014
#05918:14
#05914:00140000
#0591a:0014
#06014:14
#06018:00140000
#06012:0014
#0611a:14
#06112:00140000
#06118:0014
#06212:14
#0621a:00140000
#06214:0014
#06318:14
#06312:00140000
#0631a:0014
#06310:41
#06414:14
#0641a:00140000
#06412:0014
#09118:14
#09114:00140000
#0911a:0014
#09212:14
#09218:00140000
#09214:0014
#0921a:00000014
#09314:14
#09318:00140000
#09312:0014
#09514:14
#09518:00140000
#09512:0014
#01314:0014
#01912:1414
#01918:00140014
#02014:1414
#0201a:00140000
#02118:1414
#02112:00140014
#0221a:1414
#02214:00140000
#02314:1414
#0231a:00140014
#02412:1414
#02418:00140000
#0291a:14
#02910:41
#03012:14
#03118:14
#03214:14
#0351a:14
#03512:00140000
#03518:0014
#03514:00000014
#03718:0014
#03714:00000014
#0391a:14
#03912:00140000
#04612:14
#0461a:00140000
#04614:0014
#04618:00000014
#04112:2414
#04118:00140000
#04110:41
#04312:14
#0431a:00140000
#04314:0014
#04318:00000014
#04514:0014
#04518:00000014
#04712:14
#0471a:00140000
#0781a:14
#07814:00140000
#07818:0014
#07812:00000014
#0731a:0014
#07314:00140000
#07318:24
#0731f:21
#07310:0000000000000041
#07518:14
#07514:00140000
#0751a:0014
#07512:00000014
#07718:0014
#07712:00000014
#07714:00240000
#0791a:14
#07914:00140000
#08612:14
#08618:00140000
#08614:0014
#0861a:00000014
#08112:0014
#08118:00140000
#08114:24
#08314:14
#08318:00140000
#08312:0014
#0831a:00000014
#08514:0014
#0851a:00000014
#08518:00240000
#08510:41
#08712:14
#08718:00140000
#09014:00140000
#09018:0014
#09012:00000014
#09412:0014
#0941a:00000014
#0961a:1414
#09612:00140000
#09616:00000014
#0361a:0000001400000000
#03618:00000000000000000014000000000000
#04412:0000001400000000
#04414:00000000000000000014000000000000
#08414:0000001400000000
#08412:00000000000000000014000000000000
#07618:0000001400000000
#0761a:00000000000000000014000000000000
#0691a:14
#06918:00140000
#07012:14
#07014:00140000
#07118:14
#0711a:00140000
#07214:14
#07212:00140000
#0651f:11
#0891a:0024000000000000
#04919:00340000
#04918:0034
#05013:00340000
#05014:0034
#05119:00340000
#0511a:0034
#05213:00340000
#05212:0034
#03414:34
#03413:00340000
#04218:34
#04219:00340000
#0295a:64
#03052:54
#03158:54
#03254:64
#03752:00140000
#0335a:14
#04152:14
#0455a:00140000
#07358:14
#08154:14
#0905a:14
#01358:00140000
#09458:00140000
#0365a:0000006400000000
#03658:00000000000000000024000000000000
#04452:0000005400000000
#04454:00000000000000000024000000000000
#08454:0000006400000000
#08452:00000000000000000024000000000000
#07658:0000005400000000
#0765a:00000000000000000024000000000000
#0695a:64
#06958:00240000
#07052:54
#07054:00240000
#07158:54
#0715a:00240000
#07254:64
#07252:00240000
#07754:00140000
#08558:00140000
#013380:14240000
#0253a0:14
#025380:0024
#026320:14
#026340:0024
#027380:14
#0273a0:0024
#028340:14
#028320:0024
#0293a0:14
#029380:0024
#030320:14
#030340:0024
#031380:14
#0313a0:0024
#032340:14
#032320:0024
#033340:00000014
#034340:34
#034330:00340000
#034320:00003424
#0363a0:1400343400002400
#036380:00000000000000000054000000000000
#037320:14240000
#039380:0014
#0403a0:00003400003400002400000000000000
#041380:00000014
#042380:34
#042390:00340000
#0423a0:00003424
#044320:1400343400002400
#044340:00000000000000000054000000000000
#0453a0:14240000
#047340:0014
#048320:00003400003400003400000024000000
#0493a0:14
#049390:00340000
#049380:00003424
#050320:14
#050330:00340000
#050340:00003424
#051380:14
#051390:00340000
#0513a0:00003424
#052340:14
#052330:00340000
#052320:00003424
#0533a0:1434
#053380:00340024
#054320:1434
#054340:00340024
#055380:1434
#0553a0:00340024
#056340:1434
#056320:00340024
#0653a0:1424
#065380:00540000
#066320:1424
#066340:00540000
#067380:1424
#0673a0:00540000
#068340:1424
#068320:00540000
#0693a0:1424
#069380:00540000
#070320:1424
#070340:00540000
#071380:1424
#0713a0:00540000
#072340:1424
#072320:00540000
#073320:00000014
#074340:34003424
#074320:00340000
#076380:1400343400002400
#0763a0:00000000000000000054000000000000
#077340:14240000
#0793a0:0014
#080380:00003400003400002400000000000000
#0813a0:00000014
#082380:34003424
#0823a0:00340000
#084340:1400343400002400
#084320:00000000000000000054000000000000
#085380:14240000
#087320:0014
#088340:00003400003400003400003400002400
#0893a0:00001400003400003400003400003400
#0903a0:24
#094380:14240000
#097320:14000000003400000000000000000000
#097340:00003400000000003400003400003400
#098320:0000000000240000
