This file was generated by Ched 2.7.0.0.
#TITLE ""
#ARTIST ""
#DESIGNER ""
#DIFFICULTY 0
#PLAYLEVEL
#SONGID ""
#WAVE ""
#WAVEOFFSET 0
#JACKET ""
#REQUEST "ticks_per_beat 480"
#00002: 4
#BPM01: 240
#00008: 01
#TIL00: ""
#VOLUME: ""
#HISPEED 00
#MEASUREHS 00
#00118:14
#00214:14
#0031a:14
#00412:14
#00518:14
#00614:14
#01014:14
#01118:14
#01212:14
#0131a:14
#01414:14
#01518:14
#01612:14
#05618:00000014
#05714:00000014
#05710:00000041
#05818:00000014
#05914:00000014
#0601a:00000014
#06012:00000014
#06118:00000014
#06214:00000014
#06318:00000014
#06414:00000014
#07412:00160000
#07418:00000016
#07512:00160000
#07518:00000016
#07612:00160000
#07818:00160000
#07812:00000016
#07918:00160000
#07912:00000016
#08018:00160000
#07712:00000016
#08118:00000016
#08218:00160000
#08212:00000016
#08312:00160000
#08318:00000016
#08412:00160000
#08512:00000016
#08612:00160000
#08618:00000016
#08718:00160000
#08712:00000016
#08818:00160000
#09718:00000014
#0971f:00000011
#09814:00000014
#0991a:00000014
#10012:00000014
#10118:00000014
#10214:00000014
#1031a:00000014
#10412:00000014
#12218:00160000
#12212:00000016
#12318:00160000
#12310:00000041
#12512:00000016
#12612:00160000
#12618:00000016
#12718:00160000
#13312:00000016
#13418:00160000
#13412:00000016
#13518:00160000
#13618:00000016
#13712:00160000
#13718:00000016
#13812:00160000
#13818:00000016
#13912:00160000
#14012:00000016
#14010:00000041
#14118:00160000
#14112:00000016
#14212:00160016
#14312:00160000
#14318:00000016
#14418:00160016
#14518:00160000
#15018:00160000
#15012:00000016
#15118:00160000
#15112:00000016
#15218:00160000
#15212:00000026
#16119:00000014
#16213:00000014
#07318:00000026
#11518:00000024
#11614:00000024
#11718:00000024
#12112:00000026
#1211f:00000021
#14912:00000026
#08910:00000041
#01710:41
#03710:41
#0073a0:14343434
#0083a0:34343400
#0093a0:24
#0173a0:14
#020380:00000024
#022320:14
#025340:00000024
#0273a0:14
#029380:0034
#0303a0:00000024
#032320:14
#034340:0034
#035320:00000024
#0373a0:14
#0383a0:00240000
#039340:0014
#040340:00000024
#042380:14
#043380:00240000
#044320:0014
#045320:00000024
#0473a0:14
#048380:00240000
#049320:0014
#050340:00000024
#0523a0:14
#053380:00240000
#054320:0014
#055340:00000024
#0653a0:00000014
#0663a0:00000024
#067340:00000014
#068340:00000024
#069380:00000014
#070380:00000024
#071320:00000014
#072320:00000024
#076380:00000016
#077380:00260000
#080320:00000016
#081320:00260000
#084380:00000016
#085380:00260000
#088320:00000016
#089320:00260000
#0893a0:00000014
#0903a0:00000034
#0913a0:00000034
#0923a0:00000024
#093320:00000014
#094320:00000034
#095320:00000034
#096320:00000024
#1053a0:00000014
#1063a0:00000024
#107340:00000014
#108340:00000024
#109380:00000014
#110380:00000024
#111320:00000014
#112320:00000034
#114320:00000024
#123320:00000016
#124320:00260000
#124380:00000016
#125380:00260000
#127320:00000016
#128320:00260000
#128380:00000016
#129380:00260000
#129320:00000016
#130320:36363626
#131380:00000016
#132380:36363626
#135320:00000016
#136320:00260000
#139380:00000016
#140380:00260000
#145320:00000016
#146320:00260000
#146380:00000016
#147380:00260000
#147320:00000016
#148320:00260000
#148380:00000016
#149380:00260000
#1533a0:00000014
#1563a0:00000024
#157320:00000014
#160320:00000024
#1633a0:00000014
#164380:00000000000000000000000000000000000000000000000000000000000000000000000000000000000000000000000000000000000000340000000000000000
#1663a0:34
#167380:00000000000000000034000000000000000000000000000000000000000000000000000000000000000000000000000000000000000000000000000000000000
#1683a0:00340000
#170380:000000000034
#1723a0:00000000000000000000000000000000000000000000000000000000000000000000000000000000003400000000000000000000000000000000000000000000
#1773a0:00240000
