This file was generated by Ched 2.7.0.0.
#TITLE ""
#ARTIST ""
#DESIGNER ""
#DIFFICULTY 0
#PLAYLEVEL
#SONGID ""
#WAVE ""
#WAVEOFFSET 0
#JACKET ""
#REQUEST "ticks_per_beat 480"
#00002: 4
#BPM01: 240
#00008: 01
#TIL00: ""
#VOLUME: ""
#HISPEED 00
#MEASUREHS 00
#00815:00130016
#00818:13
#00812:001300000013000000000000
#0081b:001313000000
#00816:0014
#00118:00130000
#00115:00000013
#0011b:23
#00112:0023
#00215:00130000
#00218:00000013
#0021b:23
#00212:0023
#00312:00130000
#0031b:00000013
#00318:23
#00315:0023
#00415:00132300
#00418:23000013
#00512:00132300
#0051b:23000013
#00615:00130000
#0061b:00000013
#00612:23
#00618:0023
#00715:001300000013000000000013
#00718:001313001300
#00712:000000130000001300130000
#0071b:230000130013
#01016:130013
#0101b:00000013
#01112:130013
#01118:00000013
#01213:000013
#01215:000000000000000000000013
#01219:00000013
#01216:13
#00912:23000013
#07315:000000000000000000000000000000000000000000330000330000330000330000330000000000001300000000000000
#0731b:000000000000000000230013
#07312:00230000
#07314:0000003300000000
#07313:00000000003300000000000000000000
#07318:33333333000000000000000000000000
#07418:001300000000001300000000
#07412:131300131300
#07415:000013000013
#0741b:000000130013000000130013
#11216:14141414
#11116:00230014
#11112:1313
#07518:001300000000001300000013
#07512:131300131300
#07515:000013000013
#0751b:000000130013000000230000
#07618:001300000013001300000013
#07615:001313001313
#07612:1313
#0761b:00130013
#07718:001300000013001300230000
#07715:001313001300
#07712:130000130013
#0771b:000000130000000000000013
#0781b:001300000013001300000013
#07812:001313001313
#07815:1313
#07818:00130013
#0791b:001300000013001300230000
#07912:001313001313
#07915:1313
#07918:000000130000000000000013
#0801b:001300130000001300130000
#08015:001300001300
#08012:130013130013
#08018:000000000013000000000013
#0811b:001300130000001300230000
#08115:001300001313
#08112:130013130000
#08118:000000000013000000000000
#0811a:000000000000000000000013
#08214:130013
#08219:001300000013000000000000
#08213:001300130000
#08218:00130000
#08212:001300
#0821a:000000000000001300000013
#0821b:00000013
#08215:000000000013
#08314:130013
#08319:001300000013000000000000
#08313:001300130000
#08318:000000130000000000000013
#08312:000013000013
#0831a:000000000000001300000000
#0831b:00000023
#08715:001300130013
#0871b:001300000013000000000013
#08712:131313
#08718:000000130000001300230000
#08815:130013130013
#08818:001300130000001300130000
#0881b:000000000013000000000013
#08812:001300001300
#08415:131313
#0841b:001300000013000000130000
#08412:001300130013
#08418:000000130000001300000013
#08515:130013001313
#0851b:001300000013000000230000
#08512:001300130000
#08518:000000130000001300000013
#08612:131313
#0861b:001300000013000000130000
#08615:001300130013
#08618:000000130000001300000013
#09016:12
#09014:00120000
#09017:00000013
#09112:12
#09115:00120000
#09113:0012
#09116:00000012
#09218:12
#09214:0012000000000000
#0921a:0000001200000000
#09216:0012
#09212:12
#0921c:0012
#09318:12000012
#09316:0012
#0941c:0012
#09412:00120012
#09416:0012
#09518:000000000000120000000000000000000000000000000012
#09516:0012
#09512:00000012
#0951c:00001212
#09612:000000000012000000000000
#09618:0012
#0961a:00000012
#0961c:00120000
#09616:000012000000000000000012
#09614:00000012
#1311b:1313
#13112:00000013
#13116:1323
#13117:00000023
#1321b:13001323
#13212:00130023
#13216:2323
#13217:00230000
#0701b:1313
#07012:13001326
#07015:001300000000
#07018:000000260000000013000000
#0711b:13000000000000001300000000000033
#07112:13001326
#07115:001300000000
#07118:000000260000000013130000
#0711a:0000000000000033
#07119:00000000000000000000000000330000
#06918:001300001300
#0691b:1313
#06915:000000000013000000000000
#06912:00130026
#09912:000000130013000000000000
#09916:130013
#0991b:13000023
#09917:00231300
#10012:001300000000
#10016:13
#1001b:13001323
#10017:00230000
#10515:0013
#10518:130000000013000000000000
#1051b:001300000000
#10512:00230023
#09812:00000013
#0981b:00001323
#09817:13230000
#10116:13
#1011b:13001323
#10117:00230000
#10216:1313
#10212:00130000
#1021b:13001323
#10217:00230000
#10312:00000013
#1031b:13001323
#10317:00230000
#10415:000000000000000000000013
#10412:13230000
#1041b:00001323
#0621b:00000013
#06214:1313
#06212:00130000
#06219:1313
#06217:00130000
#06216:00000013
#06312:13001313
#06317:00000013
#0631b:1313
#06318:0013000000000000
#06315:0013000000000000
#0661b:130000130013
#06612:000000130013
#06615:000013
#06618:000013
#06616:13
#06818:130013
#06812:130000000013000000130000
#06815:000013000000000000000013
#06712:00130000
#0671b:00130013
#06715:000000000013000000130000
#06718:0013
#0201a:00000012
#02016:12
#02018:00120000
#02014:0012
#05015:00130013
#05012:1313
#05112:1313
#05115:0000130000130000
#0511b:00001313
#05118:0000000000000013
#1401b:1313000013000000
#14012:0000001313000000
#14017:00130000
#14018:00000023
#14015:00000023
#14010:00000041
#14112:1300000013000013
#1411b:1300000000130000
#14118:00131300
#14114:00000013
#14115:0000001300000000
#14418:0000000000000013
#1441b:0013000000001300
#14412:0013
#14515:13
#14512:0013000000130000
#1451b:0013000013002300
#14516:00001313
#14816:14141400
#1481a:00240000
#14818:00000026
#14812:24002423
#15015:16161616
#15012:0000001300130000
#1501b:0013000000000013
#15115:16
#15112:0013000013000000
#15114:0000000000130000
#1511b:0013000000001300
#15119:0000000000000013
#15116:00000013
#15117:0013
#1521b:0000130000132300
#15218:0000001300000000
#15215:0013
#15212:1300130000132300
#15217:13
#14212:00130000
#1421b:0013001300000000
#14219:13
#14216:0000001300000000
#14217:0000000000130000
#14716:13001314
#1471b:1313
#14717:00130000
#1471a:00000024
#14712:00230000
#1461b:0000230000130000
#14617:13001313
#14612:13001323
#14616:00130000
#14915:00000016
#1491b:2300000023000013
#14918:00260000
#14912:26232600
#13416:13
#13412:00130013
#13415:0000000000000013
#1341b:1313
#13518:13
#13516:0000000013000013
#13514:0000000000130000
#13517:00000000001300000000000013000000
#13512:0013000000001300
#1351b:0013000000000000
#1361b:13130013
#13616:00130013
#13614:0000001300000000
#13617:0013
#13619:0000000000130000
#13612:0000000013000013
#1371b:13131300
#13712:000000130000000000130000000000000000000000001400
#13716:00001324
#13717:0013000000000000
#16216:001200120000
#16218:12120000
#16214:00000012
#1621a:000012
#1621c:0012
#16212:12
#1631c:00120012
#16316:00120000
#16318:120000000012000000000000
#16312:12001212
#0171c:0012
#01716:00000012
#01718:00120000
#0171b:23
#01712:23
#01710:41
#01813:12
#01816:00120000
#01819:0012
#0181c:00000012
#0191c:00000012
#0191a:0022
#01914:0022
#0541b:00130013
#05415:0013000000000000
#05418:13
#05412:00130000
#05417:0023
#05315:0000000000000013
#0531b:00230013
#05318:0013
#05312:13000013
#05316:00130000
#05216:00130013
#05212:2313
#0521b:23
#05517:13
#05516:00130023
#05512:0013
#13316:0014
#1331b:00000023
#13312:00000023
#0291b:00131300
#02912:13130013
#02916:0023
#03518:0013000000000000
#03515:13
#0351b:00130013
#03512:00131300
#03516:00000013
#0281b:13001313
#02816:13000013
#02817:00130000
#02812:00130000
#0471b:2313
#04718:00130013
#04712:23
#04915:0013000000001300
#0491b:1323
#04918:00130000
#04912:00132300
#06517:00000013
#0651b:2323
#06512:00230023
#0891b:000000000013000000130000
#08915:130013130000
#08918:001300130000001300000000
#08912:001300001300
#08910:00000041
#13912:0000000000141300
#13916:000014000000240000000000000000000000000000130000
#14316:00000013
#14317:00000000000000000000000000000013
#14312:23000000000000002300000000000013
#1431b:00230023
#05617:00000012
#05717:12121200
#0571b:00000023
#05712:00000023
#05710:00000041
#12812:0000000013000013
#12817:0013
#12815:00000013
#1281b:0000000000130000
#1291b:13000013
#12917:0013000000000000
#12912:0013000000000000
#12918:0013
#12915:0000000000130000
#12412:000000001300000000130000000000000000000000000000
#12416:1313
#12417:00130000
#1241b:0000000000130000
#1271b:00000000000000002300000000000013
#12712:23000000000000000000000000000013
#12714:00230000
#12717:23
#12719:00230000
#12716:0023
#12715:00000023
#12718:00000023
#1231b:000000130000000000230013
#12316:001400000000000000000000
#12312:00241323
#12310:00000041
#13816:001400240000001400240000
#1381a:000000000014000000000000
#13812:000000000000000000000014
#1071b:000000130013000000000000
#10717:130013
#10712:13000023
#10716:00231300
#1081b:001300000000
#10817:13
#10812:13001323
#10816:00230000
#1061b:00000013
#10612:00001323
#10616:13230000
#10917:13
#10912:13001323
#10916:00230000
#11017:1313
#1101b:00130000
#11012:13001323
#11016:00230000
#02212:2212
#02218:00000012
#02216:00120000
#0221c:22
#0231b:12
#02318:00120000
#02315:0012
#02312:00000012
#02514:00000012
#02518:12
#02516:00120000
#0251a:0012
#02412:00000012
#02414:0022
#0241a:0022
#03612:00001313
#03617:00131300
#03616:13
#0361b:13
#06419:1313
#0641b:00130000
#06414:1313
#06416:00130000
#06412:00000023
#06417:00000023
#09718:121200000000
#09714:0012
#0971a:0012
#09716:00120000
#0971f:00000011
#0971b:00000023
#1301b:0000000000130000
#13012:00130000
#1251b:13130000
#12512:13000013
#12516:00130000
#12517:00001313
#12616:1300131300000000
#1261b:0000131300000000
#12612:0013
#12617:0013
#07215:00130000
#0721b:33333333000000000000000023000000
#07218:00000000000000000000000000000033
#07219:0000000000000033
#0721a:00000000000000000000000000330000
#07212:00000000000000333333333300000000
#07213:0000003300000000
#07214:00000000003300000000000000000000
#15819:1313
#1581b:00130013
#15816:001300000000
#15919:1313
#1591b:00130000
#15912:000000000013130000130000
#16118:001500150016001600160000
#16114:14
#16112:000000161600
#16113:001515000000
#16014:130000130014
#16018:000000000000000000140014
#16012:00130000
#1601b:000000000013130000000000
#03012:13
#0301b:00130000
#03017:1300000000130000
#03112:13000013
#03118:00130000
#03115:0013001300000000
#0311b:00001313
#02717:00130000
#02716:1313
#0271b:2300000000130000
#02712:00000013
#03312:1313
#03318:00000013
#03317:13
#03316:00130000
#0331b:00130000
#03315:0000000000130000
#03217:1313
#03212:2300000000130000
#0321b:00000013
#03216:00130000
#03418:0013000000000000
#03415:00130000
#0341b:13
#03417:0013
#03416:00000013
#03412:0023
#03718:0000000000130000
#0371b:1313
#03717:00130000
#03712:00130000
#03716:23
#03715:00000023
#03710:41
#03817:00130000
#0381b:1313
#03812:00000013
#03816:1313
#03912:0013
#03917:0013
#0391b:13230013
#03916:13000013
#04017:13130000
#04016:0013
#04014:00000013
#0401b:0000000000130000
#04012:00130000
#04112:13002313
#04115:00130000
#04118:0000001300000000
#0411b:0013000000001300
#04212:1313
#04216:00130000
#0421b:00130023
#04217:23
#0431b:13000013
#04317:0013
#04312:1313
#04315:00130000
#04318:0013000000000000
#04417:00000013
#04412:00230013
#0441b:1323
#04415:13
#04418:0013000000000000
#04416:0023
#04518:0013000000000000
#0451b:13001313
#04512:0013
#04515:00130000
#04516:00000013
#0461b:00002313
#04612:00130000
#04617:13130000
#04616:0013
#0481b:1313
#04818:00130013
#15515:1300130000000013
#15518:00001313
#15512:000000000013000000130000
#15715:130000000013000000000000
#15712:000000130000000013000000
#15718:0013
#1571b:00000023
#15415:13130000
#15418:000000001300000000000000000000000000000000130000
#1541b:13001313
#15412:0000001300001300
#15618:000000000013000000130000
#1561b:1300130000000013
#15615:0013
#15612:00000013
#12115:00130000
#1211b:00130000
#12112:0013
#12116:000000000000000000000000000000130000000000001400
#12117:0000001300000000
#1211a:00000024
#1211f:00000021
#12218:000000000014000000000000
#12213:000000000000000000000014
#12219:001400000000000000000000
#12214:000000000000001400000000
#12215:00240000
#12217:00000024
#01417:130013
#01412:00000013
#0151b:130013
#01515:00000013
#0161a:000013
#01618:000000000000000000000013
#01614:00000013
#01617:13
#0131b:23000013
#05818:0013000023002300
#05815:2300230000130000
#0581b:00230000
#05812:00000023
#05918:0013000023002300
#05915:2300230000130000
#0591b:00230000
#05912:00000023
#06018:0013000000000000
#06014:00000023
#06012:0023
#06015:23230000
#0601b:00232300
#06019:00000023
#16414:0000001200000000000000000000000000000000000000000000000000000000000000000000000000000000000000000000000000000000000000000000000000000000000000000000000000000000000000000000000000000000000000000000000000000000000000000000000000000000000000000000000000000000
#16416:0000000000000000000000000000000000000000000000000000000000000000000000000000001200000000000000000000000000000000000000000000000000000000000000000000000000000000000000000000000000000000000000000000000000000000000000000000000000000000000000000000000000000000
#16418:0000000000000000000000000000000000000000000000000000000000000000000000000000000000000000000000000000000000000000000000000000000000000000000000000000001200000000000000000000000000000000000000000000000000000000000000000000000000000000000000000000000000000000
#1641a:00000000000000000000000000000000000000000000000000000000000000000000000000000000000000000000000000000000000000120000000000000000
#16516:00000000000000120000000000000000
#16518:000000000000000000000000000000000012000000000000
#1661a:12
#16616:00000000000000000012000000000000
#16716:00000000000000000012000000000000000000000000000000000000000000000000000000000000000000000000000000000000000000000000000000000000
#1671a:00000000000000000000001200000000
#16718:0000000000000000000000000012000000000000000000000000000000000012
#16816:00120000
#16814:0000000000000000000000000000000000000000000000000000000000000000000000000000000000000000000000000000000000000000000000000000000000000000000000000000000000000000000000000000000000000000000000000000000000000000000000000000001200000000000000000000000000000000
#16918:0012
#16916:00000000000000000000000000000000000000000000000000000000000000000000000000000000000000000000000000000000001200000000000000000000
#17014:00000000000000000012000000000000000000000000000000000000000000000000000000000000000000000000000000000000000000000000000000000000
#17015:000000000000000000000000000000000000000000000000000000000000000000000000000000000000003200000000
#17117:00000000001200000000000000000000
#17116:0000000000120000
#17118:0000000000000000000000000000000000000000000000000000000000120000
#1721a:00000012000000000000000000000000
#1721c:00000000000000000000000000000000000000000000000000000000001200000000000000000000000000000000000000000000000000000000000000000000
#17214:00000000000000000000000000000000000000000000000000000000000000000000000000000000001200000000000000000000000000000000000000000000
#17218:00000000000000000000000000000000000000000000000000000000000000000000000000000000000000000012000000000000000000000000000000000000
#17316:12
#1201a:00000024
#12012:00000024
#11518:00000022
#11616:00220000
#11618:00000022
#11716:00220000
#11718:00000022
#15317:22222200
#15312:00000023
#1531b:00000023
#0611b:00230023
#06112:00230023
#06113:23
#0611a:23
#00855:00000016
#0295b:00136300
#02952:00130000
#02957:00000013
#0285b:00000063
#02856:00000013
#02857:00130000
#02852:00530000
#05356:00630000
#0535b:00130000
#0635b:63
#06352:53
#06358:0023000000000000
#06355:0023000000000000
#06557:00000053
#0655b:6363
#06552:00530053
#06655:000063
#06658:000053
#06656:23
#0665b:230000000023
#06652:000000000023
#0895b:00000063
#0955c:00000062
#09558:000000000000000000000000000000000000000000000022
#1345b:6363
#13452:00530000
#1355b:0063000000000000
#13552:00000053
#13557:00000000002300000000000000000000
#13556:0000000000000023
#13656:00000063
#13652:0000000000000023
#13756:0063
#13757:0053000000000000
#1375b:00230000
#1405b:0063000063000000
#14052:0053
#14057:00230000
#14058:00000013
#14055:00000013
#13952:00000053
#13956:0000000000000023
#14259:53
#14256:0000006300000000
#14257:0000000000530000
#1425b:0023000000000000
#14154:00000063
#14152:0000000000000023
#1415b:0000000000230000
#14158:0053
#1445b:0063000000000000
#14452:0053
#14356:00000063
#14357:00000000000000000000000000000023
#14352:53000000000000005300000000000023
#1435b:00630063
#09057:00000023
#12452:0000005300000000
#12456:0023
#12857:0053
#12855:00000063
#1285b:0000000000230000
#12852:0000000000000023
#1275b:00000000000000000000000000000023
#12752:00000000000000000000000000000023
#12755:00000063
#12758:00000053
#02352:00000052
#03652:00001313
#03657:0053
#03656:63
#0365b:00000013
#1315b:63
#13156:63
#1295b:00000063
#13052:00530000
#12656:0000006300000000
#1265b:0000006300000000
#12652:0023
#12657:0023
#12556:00630000
#12557:00000053
#07158:00160053
#07152:00000016
#07255:00630000
#0725b:00000063
#15152:0013000000000000
#1515b:0013000000000000
#03052:53
#0305b:00630000
#03057:0000000000230000
#03056:00130000
#0315b:0013
#0355b:00630013
#03552:00130000
#02757:00130000
#02756:63
#02752:00000013
#03358:00000013
#03356:00130000
#0335b:00630000
#0325b:00000013
#03256:00130000
#03257:53
#03455:00130000
#03457:0053
#0345b:00000013
#03757:00130000
#03752:00530000
#03755:00000013
#03857:00130000
#03852:00000013
#03856:63
#0385b:0063
#04057:00530000
#0405b:0000000000230000
#04052:00130000
#0395b:00130013
#03956:63000063
#03952:00130000
#04256:00130000
#0425b:00630013
#04252:0053
#0435b:00000013
#04352:0053
#04355:00130000
#04457:00000013
#04452:00130053
#04555:00130000
#0455b:00000013
#04556:00000063
#0465b:00001313
#04657:00530000
#04656:0063
#04652:00000013
#0185c:00000062
#15658:00000053
#1565b:0000000000000023
#1545b:00000063
#15455:00630000
#15452:0000002300000000
#15458:0000000000000023
#15552:00000053
#15555:0000000000000023
#1215b:00630000
#12152:0053
#12156:0000000000230000
#12157:0000002300000000
#1235b:00630000
#1205a:00000014
#12052:00000014
#06952:00000016
#07058:00160000
#07052:00000016
#14858:00000016
#14958:00160000
#14952:1616
#05556:00000013
#05457:0013
#05252:13
#06452:00000053
#07352:00530000
#04152:0013
#15352:00000013
#1575b:00000013
#1335b:00130000
#13352:00130000
#0093b0:13230000
#009361:00130000
#009321:0023
#009370:0013
#0093b0:00000023
#0103b0:13
#010370:00230000
#010321:00130000
#010361:0023
#0103b0:000000132300
#011370:13
#0113b0:00230000
#011361:00130000
#011321:0023
#011380:000000132300
#0123b0:13
#012370:00230000
#012321:00130000
#012361:0023
#012390:000000132300
#013320:13230000
#013371:00130000
#0133b1:0023
#013360:0013
#013320:00000023
#014320:13
#014360:00230000
#0143b1:00130000
#014371:0023
#014320:000000132300
#015360:13
#015320:00230000
#015371:00130000
#0153b1:0023
#015350:000000132300
#016320:13
#016360:00230000
#0163b1:00130000
#016371:0023
#016340:000000132300
#0183c0:00000012
#019380:00220000
#021320:12
#021360:00220000
#0213c0:0012
#021380:00000022
#023320:00000012
#024360:00220000
#0263c0:12
#026380:00220000
#026320:0012
#026360:00000022
#027360:13
#027320:00230000
#028320:00130000
#028360:0023
#0283b0:00000013
#029370:23
#0293b0:0013
#029370:00000023
#030320:13
#030360:00230000
#0303b1:00130000
#030371:0000000000530000
#0313b1:23
#032371:13
#0323b1:00230000
#0333b1:00130000
#033371:0023
#034371:0013
#0343b1:00000023
#0353b1:00130000
#035371:0023
#036361:13
#036321:00230000
#036371:0013
#0363b1:00000023
#037321:00130000
#037361:0023
#038361:13
#038321:00230000
#0383b1:0013
#038371:00000023
#039361:13
#039321:00230000
#039361:00000013
#040321:23
#040371:00130000
#0403b1:0000000000530000
#041371:23
#0423b1:00130000
#042371:0023
#042320:0013
#042360:00000023
#043320:0013
#043360:00000023
#044320:00000013
#045360:23
#045360:00000013
#046320:23
#046370:00130000
#0463b0:0023
#046361:0013
#046321:00000023
#047321:00130000
#047351:00003333
#048321:23
#048351:00130023
#048321:0033
#0493b1:00000013
#050381:33330000
#0503b1:0023
#050381:00000013
#0513b1:33
#051381:00230000
#0523b1:00130033
#052371:0033
#053371:23
#053361:00130000
#053321:0023
#054321:0013
#054361:00000033
#055321:23
#0553b1:00130023
#055371:0033
#063321:13230000
#063351:0053000000000000
#0633b0:13230000
#063380:0053000000000000
#064320:00000013
#065360:23
#0653b1:13
#065371:00230000
#065320:00130000
#065360:0023
#0653b1:0013
#065371:00000033
#0663b1:53
#066371:00230000
#065320:00000013
#066360:53
#066320:00230000
#066350:000013
#066320:000000000053
#067350:23
#066381:000013
#0663b1:000000000053
#067381:23
#068381:00130000
#0683b1:000000000023000000000000
#071381:00000013
#071391:00000000000000000000000000330000
#0713a1:0000000000000033
#0713b1:00000000000000000000000000000033
#0723b1:33333333230000000000000000000000
#072350:00130000
#072340:00000000003300000000000000000000
#072330:0000003300000000
#072320:00000000000000333333333323000000
#0723b1:00000013
#0723a1:00000000000000000000000000330000
#072391:0000000000000033
#072381:00000000000000000000000000000033
#073381:33333333230000000000000000000000
#073320:00130000
#073330:00000000003300000000000000000000
#073340:0000003300000000
#073350:00000000000000333333333323000000
#0893b0:00000013
#090370:00000053
#0913b0:00000023
#090321:00001222
#092360:00000012
#093320:22
#093380:00120000
#0933c0:0022
#093320:00000012
#094360:22
#0943c1:12
#094381:00220000
#094381:00000012
#0953c1:22
#095360:12
#095320:00220000
#0953c0:00000012
#095380:000000000000000000000000000000000000000000000052
#0963c0:002200000000
#097360:00000013
#098320:23
#098320:00130000
#098360:0023
#100360:0013
#100320:00000023
#101320:00130023
#101360:0033
#102320:00000013
#103360:23
#103320:00130000
#103360:0023
#104370:13
#1043b0:00230000
#104360:0013
#104320:00000023
#105370:00000013
#1063b0:23
#1063b0:00130000
#106370:0023
#108370:0013
#1083b0:00000023
#1093b0:00130023
#109370:0033
#1103b0:00000013
#111370:23
#1113b0:00130000
#111370:0023
#112360:000000000014
#114340:000028
#117380:00000012
#117390:00000000000000000000000000320000
#1173a0:0000000000000032
#1173b0:00000000000000000000000000000022
#1213b0:00132300
#121370:0000005300000000
#121321:00001323
#121361:0000000000530000
#1233b1:00130000
#123371:0023
#124321:0000001300230000
#124361:0053
#125361:00130000
#125321:0023
#125371:00000013
#1263b1:23
#126361:0000001300230000
#126321:0053
#1263b0:0000001300230000
#126370:0053
#127350:00000013
#127320:00000000000000000000000000000053
#128350:0023000000000000
#127381:00000013
#1273b1:00000000000000000000000000000053
#128381:0023000000000000
#128371:0013
#1283b1:0000000000530000
#128381:00000023
#128350:00000013
#128320:0000000000000053
#129360:23
#1293b0:00000013
#130370:00230000
#130321:00130000
#130361:0000000000230000
#130361:00000013
#131361:33
#131321:00230000
#1313b0:13
#131370:00230000
#1323b0:0000000000001333
#1323a0:00000000000000000000000000530053
#1333b0:3333230000000000
#1333a0:00530053000000000000000000000000
#132321:0000000000001353
#132331:00000000000000000000000000330033
#133321:5353230000000000
#133331:00330033000000000000000000000000
#1343b1:13
#134371:00230000
#134320:00130000
#134360:0023
#1343b1:0013
#134371:00000023
#1353b1:0013000023000000
#135371:00000000005300000000000000000000
#135321:00000013
#135361:0000000000000053
#136321:23
#136361:00000013
#136321:0000000000000053
#137361:23
#137371:0013002300000000
#1373b1:00530000
#137361:0013
#137321:00000023
#1393a1:000000000014000000000000
#139361:0000000000240000
#139321:00000013
#139361:0000000000000053
#140321:23
#1403b1:0013002300000000
#140371:00530000
#1403b1:0013
#140381:00000023
#140320:0013
#140350:00000023
#141380:0013
#1413b0:0000000000530000
#141370:00000023
#141341:00000013
#141321:0000000000000053
#142361:23
#142390:13
#1423b0:0053000000000000
#142370:00230000
#142360:0000001300000000
#142320:0000000000230000
#142371:0000000000130000
#1433b1:23
#143320:13
#143360:00230000
#1433b1:00130000
#143371:0023
#143320:00000000000000001300000000000053
#143360:00000033
#144360:0023000000000000
#1433b1:00000013
#143371:00000000000000000000000000000053
#1443b1:0033000000000000
#144371:0023
#144320:0013
#144360:00000023
#154350:00132300
#154320:0000005300000000
#1543b0:00000013
#154380:0000000000000053
#1553b0:23
#155380:000000130023000000000000
#155320:00000013
#155350:0000000000000053
#156320:23
#156350:000000130023000000000000
#156380:00000013
#1563b0:0000000000000053
#157380:23
#1573b0:000000130023000000000000
#157320:00000013
#158360:23
#158360:00130000
#158320:0023
#158320:00000013
#159360:33
#159320:00230000
#1593b0:00000013
#160370:33
#1603b0:00230000
#170340:000000000012
#170350:000000000000000000000000000000000000000000000000000000000000000000000000000000000000003200000000
#170370:000000000000000000000000000000000000000000000022
#1733a0:0000001200000000000000000000000000000000000000000000000000000000
#1773a0:00220000
