This file was generated by Ched 2.6.4.0.
#TITLE ""
#ARTIST ""
#DESIGNER ""
#DIFFICULTY 0
#PLAYLEVEL
#SONGID ""
#WAVE ""
#WAVEOFFSET 0
#JACKET ""
#REQUEST "ticks_per_beat 480"
#00002: 4
#BPM01: 240
#00008: 01
#TIL00: ""
#HISPEED 00
#MEASUREHS 00
#00712:0013000000130000
#00715:0000001300000013
#0071b:2313
#00718:00130013
#16814:0000000000000012
#16818:000000000012000000000000000000000000000000000000
#0921a:00120000
#09218:00000012
#09216:1212
#1311b:1313
#13115:13000013
#13116:0023
#1311a:00000023
#13219:13
#13213:00130000
#13217:00001323
#13212:00002323
#13214:23
#13218:00230000
#09912:000000000013000000000000
#09918:0013
#09915:000013
#0991b:00130013
#10015:001300000000
#1051b:0013
#10518:13
#10515:00130000
#09812:00000013
#0981b:00000013
#10315:00000013
#0621b:13000013
#06212:00131300
#06215:13000013
#06218:00131300
#0631b:13000013
#06315:13000013
#06318:00131300
#06312:00131300
#06618:0013
#06615:000013
#06612:13
#06617:13
#06715:000000000013000000000000
#0671b:00130000
#14112:1313
#1411b:13
#14115:00130000
#14118:0000001300000000
#14512:0013000000000000
#14518:1300000000130000
#14515:00001313
#1451b:00000013
#14814:00140000
#14818:14
#1481a:0014
#14819:00240000
#14812:00000026
#14813:24
#14815:0024
#15112:1313
#15115:0000000000130000
#1511b:00000013
#15118:0000000000000013
#15117:0013000000000000
#1521b:0000001300002300
#15215:1313
#15212:00130023
#15218:0000000000130000
#1441b:00000013
#14415:0000000000000013
#14412:0013000000000000
#14418:0013000000000000
#14712:00130014
#14715:13
#14718:00130000
#1471b:13
#14717:00000024
#13418:0000000000000013
#13415:13
#1341b:13
#13412:0013
#13515:13
#13512:0000000000130000
#1351b:0013000000000000
#13518:00000013
#13612:00130000
#13618:0000001300000000
#13615:00001313
#1361b:0000000000130000
#05417:00130000
#05419:13
#05418:00000013
#05413:0013000000000000
#05412:0023
#0531b:00000013
#05315:0000000000000013
#05512:13
#05515:00130000
#05518:0013
#0551b:00000023
#09314:1212
#09318:00120000
#0931a:00000012
#0281b:13
#02812:13
#1041b:13
#10418:0013
#10412:00130013
#0891b:13001313
#08918:00130000
#08912:0013000000130000
#08915:0000001300000000
#08910:00000041
#14015:0013000013000000
#14018:0000001300000000
#14010:00000041
#05618:00000012
#05716:1212
#05718:00120000
#0571b:00000023
#05712:00000023
#05710:00000041
#05112:00000013
#05119:13
#05113:00130000
#0511a:0013
#1291b:00000013
#12918:1300000000130000
#12915:0013000013001300
#12618:00130000
#12615:0000001300000000
#12612:0013
#15818:13
#15814:001300000000
#0301b:00130000
#03012:13
#03115:0013
#03118:00000013
#03112:00130000
#02718:00001313
#02715:0000000000130000
#02712:00130000
#0271b:23
#12118:00130000
#12115:0013
#1211f:00000021
#16414:000000000000001200000000000000000000000000000000
#1641a:000000000012
#1631c:00120012
#16312:12001212
#16316:00120000
#16318:1212
#16516:000000000012000000000000
#1661c:12
#16616:000000000000000000000000001200000000000000000000
#1671a:0012000000000000
#16714:000012
#16918:0012
#17012:0012000000000000
#17018:000000000012
#00818:00130000
#00812:0013000000000000
#0081b:13
#00815:0000001300000000
#00915:00130000
#00912:13
#0091b:23
#01015:000013
#01018:00000013
#0101b:0013
#01218:000013
#01215:00000013
#01318:00130000
#0131b:13
#01312:23
#01418:000013
#01415:00000013
#01412:0013
#01615:000013
#01618:00000013
#03312:13
#0331b:1313
#03315:0000130000130000
#03318:00000013
#03418:0013000000000000
#03412:00130000
#03415:13
#03215:0013
#0321b:00130000
#03218:00000013
#03212:23
#03512:13000013
#03518:0013000000000000
#03618:13
#03615:00130000
#03812:13
#0381b:13
#04012:00130000
#0401b:13
#03715:00001323
#03718:0000000000130000
#0371b:00130000
#03712:23
#03710:41
#04115:00000013
#0411b:00130000
#04118:0023
#04415:0013000000000000
#0441b:00130000
#04418:13
#04218:0013
#04212:00130000
#0421b:23
#04215:00000023
#0451b:13000013
#04515:0013000000000000
#04615:13
#04618:00130000
#04312:0013000000000000
#0431b:13
#04318:00130000
#05013:00130000
#05019:0013
#0501a:13
#05014:00000013
#04912:00002313
#0491b:00132300
#04913:13
#06418:1313
#06412:13001323
#06415:00130000
#0641b:00130000
#06417:00000023
#06815:000000130000000013000000
#0681b:000013000000000000130000
#06812:13
#06818:000000000013000000000000
#06912:13
#06918:00001326
#06915:00130000
#0741b:13000013
#07415:0013000000000013
#07418:00131300
#07412:0000001300130000
#07315:0000000000000013
#0731b:00000023
#0751b:13
#07515:0013000000000000
#07518:0000130013000013
#07512:0000001300002300
#07612:13000013
#07618:0013000000000013
#07615:00131300
#0761b:0000001300130000
#07712:1300000000000013
#07718:0013000000002300
#07715:00131300
#0771b:0000001300000000
#07818:13000013
#07812:0013000000000013
#0781b:00131300
#07815:0000001300130000
#07918:13
#07912:0013000000000000
#0791b:0000130013000013
#07915:0000001300002300
#08015:13000013
#0801b:0013000000000013
#08012:00131300
#08018:0000001300130000
#08115:1300000000000013
#0811b:0013000000002300
#08112:00131300
#08118:0000001300000000
#08218:1313
#08212:0013000000130000
#0821b:00130013
#08215:0000001300000013
#08318:1300000013000013
#08312:0013000000002300
#0831b:00130000
#08315:0000001300000000
#08415:1313
#0841b:0013000000130000
#08412:00130013
#08418:0000001300000013
#08515:1313
#0851b:0013000000002300
#08512:0000130000000013
#08518:0000001300000000
#08618:1313
#08615:0013000000130000
#0861b:00130013
#08612:0000001300000013
#08718:13001323
#08715:0013000000130013
#0871b:00130000
#08712:0000001300000000
#0881b:1313
#08818:00130013
#08812:0013000000130000
#08815:0000001300000013
#09414:0012
#09416:12
#09418:00120000
#0941a:00000012
#09514:0012
#09516:12
#09518:00120012
#09616:0012
#09614:12
#0961a:00120000
#09618:00000012
#09716:0012
#09714:12
#0971a:00120000
#0971f:00000011
#10212:00130000
#1021b:00130000
#10218:000013
#1071b:000000000013000000000000
#10715:0013
#10718:000013
#10712:00130013
#10818:001300000000
#1061b:00000013
#10612:00000013
#1101b:00130000
#11012:00130000
#11015:000013
#11118:00000013
#11215:1313
#11218:00130000
#1721a:000000000012000000000000000000000000000000000000
#17216:00000012
#17114:0000000000120000
#1231b:000000000000000000230013
#12319:00140000
#12312:00000023
#12310:00000041
#12415:130013
#12418:001300000000
#12412:000000000013000000000000
#12518:00130000
#12515:00000013
#12818:0013
#12812:0013
#13018:00130000
#13012:00130000
#13316:13
#1331b:13000023
#13312:00000023
#13718:0013000000000000
#13715:0013
#1391b:00000013
#13912:0000001400000000
#14212:13
#1421b:1300001300000000
#14215:00130000
#14318:2313
#1431b:00130013
#14312:2313
#14315:00130013
#14618:13001313
#14612:13000013
#14615:0000000000130000
#1501b:0000001300000000
#15019:0013000000130000
#15014:13000013
#15016:00131300
#15017:0000000000000013
#14912:00000013
#14917:0000000000000013
#14914:00260000
#14916:26
#14918:0026
#15415:13
#15515:000000000013000000000000
#15518:0013
#1551b:00130000
#15718:000000000013000013000000
#15715:0013
#15716:13
#1571b:13130000
#15712:00130023
#15612:00000013
#15617:00000013
#15915:0013
#15918:000000000013000000000000
#16018:0013
#16015:000000000013000000000000
#16118:000000000013000013000000
#16115:00001313
#1611b:00130000
#16116:00130000
#16218:0012
#16214:00120000
#1621a:12
#16216:00000012
#1621c:00000012
#03915:0013
#03918:00230013
#02915:00130013
#02918:0023
#01818:12
#01816:0012
#0191a:1222
#01914:0022
#0201a:0012
#02016:12
#02118:0012
#02114:12
#01714:0012
#0171b:23
#01712:23
#01710:41
#02316:12
#02318:0012
#02414:1222
#0241a:0022
#02514:0012
#02518:12
#02616:0012
#0261a:12
#0221a:2212
#02214:22
#0471a:00000013
#0471b:23130000
#04713:0013
#04712:23
#04814:1313
#0481a:00000013
#04819:00130000
#0011b:23
#00112:0023
#0021b:23
#00212:0023
#00318:23
#00315:0023
#00418:23
#00415:0023
#0051b:23
#00512:0023
#00618:23
#00615:0023
#1201a:00000024
#12012:00000024
#11518:00000022
#11618:00220000
#11616:00000022
#11716:00220000
#11714:00000022
#1171a:00000022
#07015:00260000
#07012:00000026
#07115:00260000
#15317:00220000
#1531b:00000023
#15312:00000023
#0611b:00000023
#06114:23230000
#06119:23230000
#06115:00000023
#12712:23
#12713:00230000
#1271a:0023
#12718:23
#12719:00230000
#12714:0023
#1271b:00000023
#12715:00000023
#06014:00000023
#06015:23
#06018:00232300
#06019:00000023
#0581b:23
#05815:00232300
#05812:00000023
#05818:00000023
#05912:23
#0591b:00232323
#05915:00000023
#0521b:23
#06515:0023
#0651a:0023
#06514:00230000
#06519:00230000
#06513:23
#06518:23
#06516:00000023
#0651b:00000023
#07212:00000024
#06655:000063
#06652:23
#06657:23
#0895b:00000063
#1355b:0063000000000000
#13558:00000053
#14055:0063
#1295b:00000063
#12955:00000063
#12655:0000006300000000
#12652:0023
#0305b:00630000
#02758:00000013
#03355:00130000
#04052:00530000
#04358:00130000
#12558:00530000
#12555:00000063
#12452:000000000053000000000000
#12455:000063
#12858:0053
#12852:0053
#13058:00530000
#13052:00530000
#1315b:63
#13155:63
#13356:23
#1335b:23
#13352:00330000
#13357:00330000
#13455:63
#1345b:63
#13452:0053
#13655:00000063
#13758:0053000000000000
#1395b:00000063
#13952:0000005400000000
#14152:0053
#1425b:0000006300000000
#14358:5353
#1435b:00630063
#14352:5353
#14355:00630063
#1455b:00000063
#14555:00000063
#14658:53000053
#14652:53000053
#14752:00530000
#14755:63
#14758:00530000
#1475b:63
#15157:0013000000000000
#12359:00640000
#14452:0053000000000000
#14458:0053000000000000
#02955:00130000
#1205a:00000014
#12052:00000014
#13252:00000053
#13257:00000053
#06958:00000016
#07055:00160000
#07052:00000016
#07155:00160000
#14852:00000016
#14954:00160000
#14956:16
#14958:0016
#0555b:00000013
#0525b:13
#06556:00000063
#0655b:00000063
#1275b:00000063
#12755:00000063
#05452:0013
#03755:00000013
#03958:00130000
#04158:0013
#04255:00000013
#00858:00000013
#008380:00001323
#009380:00001323
#010320:13230000
#011350:13230000
#0113b0:00001323
#012320:1323
#012360:00330000
#013350:00001323
#0143b0:13230000
#015380:13230000
#015320:00001323
#0163b0:1323
#016370:00330000
#028350:00130000
#028320:0023
#028380:00000013
#0293b0:23
#0303b0:00130000
#031370:23
#0343b0:0013
#034380:00000023
#035350:00130000
#035320:0023
#036380:0013
#0363b0:00000023
#038380:00130000
#0383b0:0023
#038350:00000013
#039320:23
#040320:00130000
#041360:23
#043350:0013
#043320:00000023
#044320:0013
#044350:00000023
#045380:00130000
#0453b0:0023
#046350:0013
#046320:00000023
#052350:00130000
#052320:0023
#0523b0:00000013
#053380:23
#053320:00130000
#053350:0023
#065360:00000013
#066320:53
#066360:00230000
#0653b1:00000013
#066371:53
#0663b1:00230000
#066351:000013
#067321:23
#067381:00001323
#0713a1:00000014
#072361:0024
#072321:00000014
#073361:00240000
#0893b1:00000013
#091371:00000023
#0973b1:00000013
#098381:23
#098351:00130000
#098321:0023
#100381:00130023
#1003b1:0033
#101321:00130023
#101351:0033
#102351:00000013
#103321:23
#1033b1:00130000
#103381:0023
#105321:00000013
#106351:23
#106381:00130000
#1063b1:0023
#108351:00130023
#108321:0033
#1093b1:00130023
#109381:0033
#110381:00000013
#1113b1:23
#111321:00130000
#111351:0023
#112381:00000013
#114361:00000027
#1213a1:000000000000000000140034
#122371:003400000000000000000000
#1223a1:000000340034000000000000
#122361:000000000000003400000000
#122391:000000000000000000340034
#123361:003400000000240000000000
#123391:00340000
#124321:000000130033000000000000
#124351:000033
#125321:23
#125381:00130000
#1253b1:0023
#125351:00000013
#126321:23
#126351:0000001300230000
#126321:0053
#1273b1:00000013
#128381:0023000000000000
#127350:00000013
#128320:0023000000000000
#128380:0013
#1283b0:00000023
#128321:0013
#128351:00000023
#1293b1:00000013
#130381:00330000
#1303b1:000000000000000033330000
#1313b1:33
#131381:00230000
#129350:00000013
#130320:00330000
#130350:000000000000000033330000
#131350:33
#131320:00230000
#132320:00000013
#133360:53
#133320:00230000
#132371:00000013
#1333b1:53
#133371:00230000
#134351:13
#134321:00230000
#1343b0:13
#134380:00230000
#134320:0013
#134350:00000023
#1353b0:0013000000000000
#135370:0023
#135380:00000013
#1363b0:23
#136350:00000013
#137320:23
#137380:0013000000000000
#1373b0:0000002300000000
#137320:000000000000000000140034
#138340:003400000000000000000000
#138320:00340000
#138350:000000000034000000000000
#138330:000000000000003400000034
#138360:00000034
#139350:003400000000000000000000
#139320:0000343400000000
#139360:0000000000240000
#1393b0:00000013
#140380:23
#140350:0013
#140320:00000023
#141320:0013
#141350:00000023
#1423b0:0000001300000000
#142380:0000000000230000
#143380:1333
#1433b0:00330033
#144380:0033000000000000
#1443b0:0023
#143321:1333
#143351:00330033
#144321:0033000000000000
#144351:0023
#1453b1:00000013
#146381:33
#1463b1:00230000
#145350:00000013
#146320:33
#146350:00230000
#146320:00000013
#147350:3323
#147320:00330000
#146381:00000013
#1473b1:3323
#147381:00330000
#1543b1:00130000
#154371:0023
#154321:00000013
#155361:23
#155321:00000013
#156361:23
#1563b1:00130000
#156371:0023
#158371:00130000
#1583b1:0023
#158321:00000013
#159361:33
#159321:00230000
#1593b1:00000013
#160371:33
#1603b1:00230000
#160321:00000013
#161361:23
#1733c1:12
#1773c1:00220000
#1733c0:12
#1773c0:00220000
