This file was generated by Ched 2.7.0.0.
#TITLE ""
#ARTIST ""
#DESIGNER ""
#DIFFICULTY 0
#PLAYLEVEL
#SONGID ""
#WAVE ""
#WAVEOFFSET 0
#JACKET ""
#REQUEST "ticks_per_beat 480"
#00002: 4
#BPM01: 240
#00008: 01
#TIL00: ""
#VOLUME: ""
#HISPEED 00
#MEASUREHS 00
#0011a:14
#00114:0014
#0021a:14
#00214:0014
#00218:00000014
#00312:14
#00318:0014
#00412:14
#00418:0014
#00414:00000014
#0051a:14
#00514:0014
#00618:14
#00612:0014
#00912:1414
#00918:00140014
#01012:1414
#01018:00140000
#0111a:1414
#01114:00140014
#0121a:1414
#01214:00140000
#01312:14
#01318:00140014
#01314:0014
#01412:14
#01418:00140000
#01414:0014
#0151a:14
#01514:00140014
#01518:0014
#0161a:14
#01614:00140000
#01618:0014
#01712:14
#01710:41
#01815:00140000
#01912:0014
#0221a:14
#02317:00140000
#0241a:0014
#02715:14
#02812:00140000
#02915:0014
#03217:14
#0331a:00140000
#03417:0014
#03712:14
#03710:41
#0391a:0014
#04212:14
#0441a:0014
#04712:14
#0491a:0014
#05212:14
#0541a:0014
#05614:00000014
#0571a:00000014
#05710:00000041
#05814:00140000
#05818:00000014
#05912:00140000
#0591a:00000014
#06014:00140000
#06018:00000014
#06114:14
#06118:00140000
#06112:00000014
#06218:00140000
#06214:00000014
#0631a:00140000
#06312:00000014
#06418:00140000
#06414:00000014
#06518:1414
#06514:00140014
#06718:00000014
#07118:00000014
#0711a:00140000
#07112:00000014
#07114:00140000
#06918:00000014
#06912:00000014
#0701a:00140000
#07018:00000014
#07014:00140000
#07012:00000014
#12018:00000014
#12114:1414
#12118:00140000
#1211f:00000021
#12312:00000014
#12310:00000041
#12418:14
#12414:00140000
#1241a:0014
#12412:00000014
#1251a:00000014
#1261a:14
#12614:00141400
#12618:00000014
#12718:14
#12712:00141400
#1271a:00000014
#1281a:14
#12814:00141400
#12818:00000014
#12918:14
#12912:00141400
#1291a:00000014
#13012:00000014
#1311a:00000014
#13212:00000014
#1331a:00000014
#13414:1414
#1341a:00140000
#13418:00000014
#13512:14000014
#13518:00140000
#13618:1414
#13612:00140000
#13614:00000014
#1371a:14000014
#13714:00140000
#13816:1414
#13812:00140000
#1381a:00000014
#13916:1414
#13912:00140000
#1391a:00000014
#14012:00000014
#14010:00000041
#14118:00000014
#14214:1414
#14218:00140000
#14314:00000014
#14318:34340000
#14418:1414
#14414:00140000
#14518:00000014
#14514:34340000
#14614:14
#1461a:00140000
#14612:0014
#1491a:00000014
#14912:34340000
#15014:1414
#1501a:00140014
#15114:14
#1511a:00140000
#15112:00000014
#15218:1414
#15212:00140024
#15418:14
#15414:00140000
#1541a:0014
#15412:00000014
#15518:14
#15514:00140000
#1551a:0014
#15512:00000014
#15618:14
#15614:00140000
#1561a:0014
#15612:00000014
#15718:14
#15712:00140000
#1571a:00000014
#15814:14
#15818:00140000
#15812:0014
#1581a:00000014
#15914:14
#15918:00140000
#15912:0014
#1591a:00000014
#16014:14
#16018:00140000
#16012:0014
#1601a:00000014
#16114:14
#1611a:00140000
#16112:00000014
#16218:1414
#16212:00140000
#16214:00000014
#1631a:1414
#16314:00140000
#11212:00000016
#1111a:00140000
#11014:00000014
#11018:00140000
#10912:00000014
#10918:0014
#10914:00140000
#1081a:00000014
#10814:00140000
#10714:0014
#10718:00140000
#1071a:00000014
#10612:00000014
#10618:00140000
#10514:00000014
#10512:00140000
#1051a:00140000
#10412:00140014
#1041a:00140014
#10312:00140014
#1031a:00000014
#10218:00000014
#10214:00140000
#1011a:00000014
#10114:0014
#10118:00140000
#10012:00000014
#10018:00140000
#09918:0014
#09914:00140000
#09912:00000014
#0981a:00000014
#09814:00140000
#0971a:00000014
#0971f:00000011
#08114:00140000
#0811a:14000014
#08014:00000014
#08018:1414
#08012:00140000
#07912:00000014
#0791a:1414
#07914:00140000
#07814:00000014
#07818:1414
#07812:00140000
#07712:14000014
#07718:00140000
#07618:00000014
#07614:1414
#0761a:00140000
#0751a:00000014
#07512:1414
#07518:00140000
#07418:00000014
#07414:1414
#0741a:00140000
#08912:00140000
#08918:14
#08910:00000041
#08812:00000014
#0881a:0014
#08814:00140000
#08818:14
#08712:00000014
#0871a:0014
#08714:00140000
#08718:14
#08612:00000014
#0861a:0014
#08614:00140000
#08618:14
#08512:00000014
#0851a:00140000
#08514:14
#0841a:00000014
#08412:0014
#08418:00140000
#08414:14
#0831a:00000014
#08312:0014
#08318:00140000
#08314:14
#0821a:00000014
#08212:0014
#08218:00140000
#08214:14
#0721a:00000024
#07214:00000024
#1531a:00240000
#15312:00000024
#14714:00000024
#1471a:34340000
#14818:24
#14812:00240024
#1481a:0024
#0731a:00000024
#11718:00000023
#11715:00230000
#11618:00000023
#11615:00230000
#11518:00000023
#17014:00000000000000000034000000000000000000000000000000000000000000000000000000000000000000000000000000000000000000000000000000000000
#01752:54
#01855:00240000
#01952:0054
#0225a:64
#02357:00240000
#0245a:0064
#02755:64
#02852:00240000
#02955:0064
#03257:54
#0335a:00240000
#03457:0054
#03752:54
#0395a:0064
#04252:54
#0445a:0064
#04752:54
#0495a:0064
#05252:54
#0545a:0064
#06554:00000054
#06758:00000064
#07158:00000054
#0715a:00540000
#07152:00000054
#07154:00540000
#06958:00000054
#06952:00000054
#0705a:00540000
#07058:00000054
#07054:00540000
#07052:00000054
#12452:00000054
#1295a:00000054
#13052:00000054
#1315a:00000054
#13252:00000054
#13558:00140000
#13754:00140000
#1395a:00000054
#14052:00000064
#1515a:00140000
#15752:00140000
#1615a:00140000
#0725a:00000014
#07254:00000014
#00858:0014
#11252:00000066
#08154:00140000
#07758:00140000
#08952:00140000
#0855a:00140000
#0073a0:14
#007390:00340034
#007380:0034
#0083a0:34
#008390:00340000
#008380:0024
#017320:14
#018350:00340000
#019320:0034
#020350:00000024
#0223a0:14
#023370:00340000
#0243a0:0034
#025370:00000024
#027350:14
#028320:00340000
#029350:0034
#030320:00000024
#032370:14
#0333a0:00340000
#034370:0034
#0353a0:00000024
#037320:14
#038350:00240000
#0393a0:0014
#040370:00000024
#042320:14
#043350:00240000
#0443a0:0014
#045370:00000024
#047320:14
#048350:00240000
#0493a0:0014
#050370:00000024
#052320:14
#053350:00240000
#0543a0:0014
#055370:00000024
#065340:00000014
#066320:00000024
#067380:00000014
#0683a0:00000024
#069380:00000014
#0703a0:00340000
#070380:00000034
#0713a0:00340000
#071380:00000034
#0723a0:00000024
#069321:00000014
#070341:00340000
#070321:00000034
#071341:00340000
#071321:00000034
#072341:00000024
#0893a1:00000014
#090371:00000034
#0913a1:00000034
#092371:00000024
#093321:00000014
#094351:00000034
#095321:00000034
#096351:00000024
#111321:00000016
#112321:00000036
#114321:00000023
#1213a1:00000014
#121391:000000000000000000000034
#122381:003400340000000000000000
#122391:000000000034000000000034
#1223a1:000000000000003400340000
#123381:003400340000240000000000
#124321:00000014
#125341:00240000
#1293a1:00000014
#130381:00240000
#130321:00000014
#131341:00240000
#1313a1:00000014
#132381:00240000
#132321:00000014
#133341:00240000
#1393a1:00000014
#140381:00240000
#140321:00000014
#141341:00240000
#142381:00000014
#143381:34340000
#1433a1:0024
#144341:00000014
#145341:34340000
#145321:0024
#1463a1:00000014
#1473a1:34340000
#147381:0024
#148321:00000014
#149321:34340000
#149341:0024
#163321:00000014
#164351:00000000000000000000000000000000000000000000000000000000000000000000000000000000000000000000000000000000000000340000000000000000
#166321:34
#167351:00000000000000000034000000000000000000000000000000000000000000000000000000000000000000000000000000000000000000000000000000000000
#168321:00340000
#169351:0034
#170341:00000000000000000034000000000000000000000000000000000000000000000000000000000000000000000000000000000000000000000000000000000000
#170321:000000000034
#172351:00000000000000000000000000000000000000000000000000000000000000000000000000000000003400000000000000000000000000000000000000000000
#177321:00240000
