This file was generated by Ched 2.7.0.0.
#TITLE ""
#ARTIST ""
#DESIGNER ""
#DIFFICULTY 0
#PLAYLEVEL
#SONGID ""
#WAVE ""
#WAVEOFFSET 0
#JACKET ""
#REQUEST "ticks_per_beat 480"
#00002: 4
#BPM01: 132
#00008: 01
#TIL00: ""
#HISPEED 00
#MEASUREHS 00
#00118:14
#00214:14
#0031a:14
#00412:14
#00518:14
#00614:14
#0071a:14
#00812:14
#0101a:14
#01114:14
#01214:14
#01318:14
#01418:14
#01512:14
#01612:14
#0171a:14
#01710:41
#01814:14
#02112:14
#02218:14
#0251a:14
#02510:41
#02614:14
#02912:14
#03018:14
#0331a:14
#0331f:11
#03414:14
#0351a:14
#03614:14
#03718:14
#03812:14
#03918:14
#04012:14
#04112:0016
#04118:26
#0411f:21
#04110:00000041
#04218:16
#04212:0016
#04518:2616
#04612:1616
#0501a:14
#05010:41
#05114:14
#05214:14
#05318:14
#05418:14
#05512:14
#05612:14
#0091a:24
#00910:41
#0491a:24
#03210:00410000
#0193a0:14
#0203a0:24
#023320:14
#024320:24
#027380:14
#028380:24
#031340:14
#032340:24
#043380:1626
#044320:1626
#047380:1626
#048320:1626
#057380:1424
