This file was generated by Ched 2.7.0.0.
#TITLE ""
#ARTIST ""
#DESIGNER ""
#DIFFICULTY 0
#PLAYLEVEL
#SONGID ""
#WAVE ""
#WAVEOFFSET 0
#JACKET ""
#REQUEST "ticks_per_beat 480"
#00002: 4
#BPM01: 132
#00008: 01
#TIL00: ""
#HISPEED 00
#MEASUREHS 00
#00018:00000013
#00012:00000013
#0011b:13131300
#0011a:0000000000130000
#00119:00000013
#00118:0000000000000013
#00112:0013001300130013
#00217:13131300
#00218:0000000000130000
#00219:00000013
#0021a:0000000000000013
#00212:0013001300130013
#00616:00131300
#00615:0000000000130000
#00614:00000013
#00613:0000000000000013
#0061b:1313001300130013
#00612:13
#00712:1313001300130013
#00719:00130013
#00717:0013
#00718:0000000000130000
#0071a:0000000000000013
#0071b:13
#0081b:13
#00818:0013000000000000
#00815:00130000
#00812:1300001300000000
#00814:0000000000131323
#00819:0000000000001323
#00918:001300000000001300000000
#00915:000000000000000013000000000000130000000000000000
#00916:0000000000000013
#0091b:000000000000130000130000000000000000130013000000
#00914:000000000000000000000000000000000000000000000013
#00912:1313000013001300
#00910:41
#01019:13
#01012:0013000013131313
#01017:000013000000000000000000000013000013000013000013
#01015:0000131300000000
#0101b:001300
#01018:000000000000000000000013000000000000000000000000
#01615:231300230000230000230000
#0161b:0013000000000000
#01618:000000000013000013000013000013000013000013000013
#01612:0000001300130013
#01715:130000000000130000000000130013000013000000130013
#01718:000000130000000000000000000000130000000013000000
#0171b:000000000000000000130000000000000013000000000000
#01712:0013001300000000
#01710:41
#01818:130000000000130000000000130013000013000000130013
#01815:000000130000000000000000000000130000000013000000
#0181b:0013001300000000
#01812:000000000000000000130000000000000013000000000000
#01915:130000000000000000000000130013000000000000130000
#0191b:000000130000000000130000000000000013000000000000
#01918:000000000000130000000000000000130000000013000013
#01912:000000130000000000130000000000000013000000000000
#02012:13130000
#02018:0013001300001313
#0201b:000000130000131300000000
#02015:000000000000000000000000000000000013000013000013
#02115:0013001300001300
#02118:0000000013130000
#02116:0000000000000013
#0211b:000000000013
#02117:000000000000000000000000000000000000000000000013
#02112:0013
#02316:0013000000000000
#02317:0000001300000000
#0231b:0013
#02318:000000000000000000000000000000130000000013000013
#02315:0000000000001323
#02312:0013
#02418:000000000000000000000000000000000013000013000013
#02415:0000000000001313
#02412:2323232323230000
#0241b:0023232323230000
#02518:000000130000000000130000000013000000000000130000
#0251b:00131300
#02515:000000000000000000000000000000130000000000000013
#02512:000000000000000000000000000000000013000013000000
#02510:41
#02718:000000130000000000000000130000130000000013000000
#02712:00130000
#02715:000000000000000000130000000000000000000000130013
#0271b:00000013
#0281b:130000000000000000000000130000000000003333333333
#02816:001300000000001300000000
#02819:0013001300130000
#02814:000000000013000000000013000000000013000000000000
#02817:00130013
#02812:001300
#02916:13
#0291b:000000130000000000130000000000000013000000000000
#02917:000000000000130000000013000000000000000013000000
#02914:0013
#02919:000000000000001300000000
#02912:000000130000000000130000000000000000000000130013
#0311b:000000130000000000130000000000000000000013000000
#03117:00130000
#03118:0000000013130000
#03115:000000000000000000000000000013000013000000130016
#03116:13
#03112:0013001300000000
#03212:0000130000130000
#03215:0000001300000000
#03218:0013
#03214:00000013
#03216:0000000000000013
#03217:0000000000130000
#03219:00000013
#0321b:0000000000000013
#03210:00410000
#03518:000000130000130013000000000000000000130013000013
#03512:130000000000000000000013000000130000000000000000
#0351b:13
#03515:000000000000000000000000000000000000000000000013
#0361b:0000001300000000
#03619:0000000013000013
#03617:0000000000131300
#03616:0000001300000000
#03614:0000000013000013
#03612:0000000000131300
#0391b:1300001300000013
#03918:000000130000130000000013000000130013000000000000
#03915:000013000000000000130000130013000000130000000000
#03912:1300130000000013
#0401a:14
#04012:14
#04118:0013000000000000
#04115:00130000
#04112:240000000000000000130000000000000013000000000013
#0411b:0000000000130013
#04117:000000000000000000000000000000000013000000000000
#04116:000000000014
#0411a:24
#0411f:21
#04110:00000041
#04218:000000000000130000000000000000000013000000000013
#04215:0013000000000013
#0421b:000000000000000000130000000000130000000013000000
#04212:0000001300130000
#04216:24
#04312:130000000000000000130013000000000000130000000000
#04319:0013000000000000
#0431b:0000130000130013
#04317:000000000000000000130013000000000000130000000000
#04314:0013000000000000
#04316:0000130000000013
#04418:000000000000000000000000130013000000000013000013
#0441b:000000000000000000000000000000000013000000000000
#04415:000000000000000000000000000000000013000000130000
#04412:230000000000131300000000
#04417:23
#04416:000000000023000000000000000000000000000000000000
#04618:0013000000160026
#04615:00130016
#04612:0000001300000026
#0461b:0000001300000000
#04616:24
#0471b:0013000013000000
#04718:0000130000001326
#04715:0000001300130000
#04712:0000000013000026
#04815:000000000000130000000013000000000000000000130000
#04818:0000001313001300
#0481b:0000000000130013
#04812:0013000000001300
#0491b:000000000000130000000000000000000013000000000000
#04918:2300001313130013
#04912:230000130000001300000000
#04915:000000130000000000000013000000000000000000000000
#05018:13
#05017:0013001300000000
#05012:001300001300000000000000
#0501b:000000000013000000000013000000000000000000000000
#05016:0000130013131313
#05019:000000000000000000000000000013000013000013000013
#05010:41
#00312:13131300
#00313:0000000000130000
#00314:00000013
#00315:0000000000000013
#0031b:1313001300130013
#00416:13131300
#00415:0000000000130000
#00414:00000013
#00413:0000000000000013
#0041b:0013001300130013
#0051b:13
#00517:00131300
#00518:0000000000130000
#00519:00000013
#0051a:0000000000000013
#00512:1313001300130013
#01115:001300000000001300000000
#01118:000000000000000013000000000000130000000000000000
#01117:0000000000000013
#01112:130000000000130000130000000000000000130013000000
#01119:000000000000000000000000000000000000000000000013
#0111b:0013000013001300
#01214:13
#0121b:0013000013131313
#01216:000013000000000000000000000013000013000013000013
#01218:0000131300000000
#01212:001300
#01215:000000000000000000000013000000000000000000000000
#01318:000013000000000000130000000000000000000000000000
#01315:000000130000000013000000000000000000000000000000
#01312:0000000013130000
#01316:0000000000001313
#0131b:130000130000000000131300
#01317:000000000000001300000000
#01314:000000000000000000000000000000000000000000000013
#01419:1300001300000000
#01412:000000130000000000000000000013000013000013000013
#01417:000013000000000000000000130000130000130000130000
#0141b:00130000
#01416:001300
#01414:000000000000000000000013000000000000000000000000
#01515:000013000000000000130000000000000000000000000000
#01518:000000130000000013000000000000000000000000130013
#0151b:0000000013130000
#01512:000000130000000000131300
#01516:000000000000001300000000
#01517:13000013
#02218:0013001300001300
#02215:0000000013130000
#02217:0000000000000013
#02212:000000000013
#02216:000000000000000000000000000000000000000000000013
#0221b:0013
#02615:000000130000000000130000000013000000000000130000
#02612:00131300
#02618:000000000000000000000000000000130000000000000013
#0261b:000000000000000000000000000000000013000013000000
#03017:13
#03012:000000130000000000130000000000000013000000000000
#03016:000000000000130000000013000000000000000013000000
#03019:0013
#03014:000000000000001300000000
#0301b:000000130000000000130000000000000000000000130013
#03315:0013001300130013
#03318:00130013
#03312:2313
#0331b:2313
#0331f:11
#03418:0013001300130013
#03415:00130013
#0341b:2313
#03412:2313
#03715:0016001600160016
#03718:00130013
#03712:2313
#0371b:2313
#03815:0016131600161316
#0381b:2313
#03812:2313
#04515:0013000000000000
#04518:00130000
#0451b:000000000000000000130000000000000013000000000013
#04512:2400000000130013
#04516:000000000000000000000000000000000013000014000000
#05112:000000000000130000000000000000000013000000000000
#05115:0000001313130013
#0511b:000000130000001300000000
#05118:000000130000000000000013000000000000000000000000
#05116:13
#05215:13
#05216:0013001300000000
#0521b:001300001300000000000000
#05212:000000000013000000000013000000000000000000000000
#05217:0000130013131313
#05214:000000000000000000000000000013000013000013000013
#0571a:14
#05716:00180000
#0571b:001300000013000000000000
#05718:001616000000
#05317:1300130000130013
#05318:0013
#0531b:000000130000000000130000000000000013000000000000
#05312:000000130000001300000000
#05315:000000000000000000000013000000000000000000000000
#05316:00000013
#0541b:130000000013000000130000000000000000000000000000
#05417:000000130000000000000013000013000000000000000000
#05412:001300000000130000000000
#05416:000000131300000000000000
#05418:000000000000000000000000000000000013000000000000
#05419:000000000013
#0541a:000000000000000000000000000000000000000000000013
#05413:0000000000130000
#05414:00000013
#05415:0000000000000013
#05516:1300130000130013
#05515:0013
#05512:000000130000000000130000000000000013000000000000
#0551b:000000130000001300000000
#05518:000000000000000000000013000000000000000000000000
#05517:00000013
#05612:130000000013000000130000000000000000000000000000
#05616:000000130000000000000013000013000000000000000000
#0561b:001300000000130000000000
#05617:000000131300000000000000
#05615:000000000000000000000000000000000013000000000000
#05614:000000000013
#05613:000000000000000000000000000000000000000000000013
#0561a:0000000000130000
#05619:00000013
#05618:0000000000000013
#00052:00000053
#01057:000000000000000000000000000043000043000043000043
#01952:000000000000000000130000000000000053000000000000
#0195b:0013000000000000
#02058:0013001300000000
#02155:0013001300000000
#01758:0013000000000000
#0175b:0000001300000000
#01855:0013000000000000
#01852:0000001300000000
#02258:0013001300000000
#02356:0013000000000000
#02357:0000001300000000
#02857:00000053
#0295b:0013000000000000
#02952:0000001300000000
#03052:0013000000000000
#0305b:0000001300000000
#0315b:0013000000000000
#03152:0000001300000000
#03155:000000000000000000000000000000000053000000000000
#03355:0033003300330033
#03458:0043004300430043
#03558:000000000000000000000000000000000000000000000053
#03555:000000000000000000000000000000000000000000000053
#03755:0036003600360036
#03855:0046004600460046
#0405a:54
#04052:64
#04152:1400005300000000
#0415a:14
#04157:000000000000000000000000000000000053000000000000
#04256:14
#04352:000000000000000000000053000000000000000000000000
#04457:53
#0445b:000000000013000000000000000000000000000000000000
#04456:000000000013000000000000000000000000000000000000
#04455:000000000000000000000000000000000053000000000000
#0455b:0000006300000000
#04556:000000000000000000000000000000000063000000000000
#04552:14
#04656:14
#04652:0000000000000056
#04758:0000000000000066
#05059:000000000000000000000000000043000043000043000043
#05254:000000000000000000000000000033000033000033000033
#0575a:64
#0575b:002300000023000000000000
#05758:005656000000
#05756:00280000
#05457:000000000000004300000000
#05458:000000000000000000000000000000000043000000000000
#05459:000000000043
#0545a:000000000000000000000000000000000000000000000043
#05356:00000053
#05557:00000063
#02558:0013001300000000
#02655:0013001300000000
#02758:0013000000000000
#02755:0000001300000000
#01256:000000000000000000000000000033000033000033000033
#01452:000000000000000000000000000033000033000033000033
#05656:000000000000003300000000
#05655:000000000000000000000000000000000033000000000000
#05654:000000000033
#05653:000000000000000000000000000000000000000000000033
#000320:00000013
#001350:23
#008390:0000000000000000000000000000000013535353230000000000000000000000
#0083a0:00000000000000000000000000000000000000000000000000000000000000000053005300530053000000000000000000000000000000000000000000000000
#019320:000000000000000000000000000000000013000000000000
#019350:000000000023
#020320:000000000000132300000000
#0213b0:1323000000000000
#021380:0000132300000000
#021350:000000000000000000000000000013230000000000000000
#021380:000000000000000000000000000000000013230000000000
#022320:1323000000000000
#022350:0000132300000000
#022380:000000000000000000000000000013230000000000000000
#022350:000000000000000000000000000000000013230000000000
#0233b0:1323000000000000
#023320:0000132300000000
#023350:000000000000000000000000000013230000000000000000
#023380:000000000000000000000000000000000013230000000000
#025350:13
#025320:0023000000000000
#025350:00130000
#025320:0000002300000000
#026380:13
#0263b0:0023000000000000
#026380:00130000
#0263b0:0000002300000000
#027350:13
#027320:0023000000000000
#027380:00130000
#0273b0:0000002300000000
#027320:000000000000000000000000000013230000000000000000
#027350:000000000000000000000000000000000013230000000000
#028370:00000013
#0283b0:000000000000000000000000000000000000003333333333
#0293b0:23
#029360:000000000000000000000000000000130023000000000000
#030370:000000000000000000000000000000130023000000000000
#031350:000000000000000000000000000000000013000000000000
#031320:000000000023
#035350:000000132300000000000000
#0353b0:000000000000000000000013000000230000000000000000
#035350:000000000000000000132300
#035350:000000000000000000000000000000000000000000000013
#036320:00230000
#035381:000000000000000000000000000000000000000000000013
#0363b1:00230000
#0403a1:14
#040381:0023
#040320:14
#040350:0023
#041320:0000001300000000
#041360:0000000000230000
#041370:000000000000000000000000000000000013000000000000
#0413b0:000000000023
#042350:000000000000000000000000000000000013000000000000
#042320:000000000023
#043320:000000000000000000000013000000000000000000000000
#043360:0000000000230000
#044370:13
#0443b0:000000000023000000000000000000000000000000000000
#044350:000000000000000000000000000000000013000000000000
#044320:000000000023
#0453b0:0000001300000000
#045370:0000000000230000
#045360:000000000000000000000000000000000013000000000000
#045320:000000000023
#046320:0000000000000016
#047350:0026000000000000
#047380:0000000000000016
#048350:0026000000000000
#049350:0000000000001323
#051380:0000000000001323
#053360:00000013
#053320:0000000000000023
#055370:00000013
#0553b0:0000000000000023
#0573a0:1424
#0573b0:005300000053000000000000
#057380:005656000000
#057360:00580000
