This file was generated by Ched 2.7.0.0.
#TITLE ""
#ARTIST ""
#DESIGNER ""
#DIFFICULTY 0
#PLAYLEVEL
#SONGID ""
#WAVE ""
#WAVEOFFSET 0
#JACKET ""
#REQUEST "ticks_per_beat 480"
#00002: 4
#BPM01: 132
#00008: 01
#TIL00: ""
#HISPEED 00
#MEASUREHS 00
#0011b:00131300
#00115:0000000000130000
#00118:00000013
#00112:0013001300000013
#0021b:13130013
#00218:0013
#00212:0013001300130000
#00215:0000000000000013
#00815:13130000
#00812:0000001300000000
#00813:00000014
#00818:0013000000000000
#00819:0000000000000024
#00915:0000000000130000
#00918:0000131300000013
#00912:1313000013001300
#0091b:00000013
#00910:41
#0101b:13
#01015:0013001300000000
#01018:00130000
#01618:0013000000130000
#01615:0000001300000013
#01612:00230023
#0161b:2323
#0171b:13000013
#01718:0000130000130000
#01715:0013000013000013
#01712:0000001300000000
#01710:41
#02512:0013
#02515:0000000000130013
#02518:00000013
#02510:41
#03515:0013001300001300
#03518:0000130000130013
#0351b:13
#03512:0013
#03918:0013000000130000
#0391b:0000130013000013
#03915:0000001300001300
#03912:1300130013000013
#0401b:13
#04012:13
#0411b:0013000000001300
#04118:00130000
#04115:0000001300000013
#04112:24
#0411f:21
#04110:00000041
#04218:0000130000130013
#04215:0013000000001300
#0421b:0000001300000000
#04212:0000001300000000
#0421a:24
#04318:0013000000130000
#0431b:00131300
#04312:13130013
#04315:0000000000000013
#0461a:0000000000140000
#04616:00000014
#04615:00130000
#04618:0013000000000000
#04612:2400001300000024
#0461b:0000001300000000
#0471b:00130013
#04718:0000001300130000
#04715:0013
#0471a:0000000000000024
#04812:00130016
#04815:0000001300000000
#04818:0000000013000016
#0481b:0000000000130000
#00018:00000013
#00312:13131300
#00318:0000000000130000
#00315:00000013
#0031b:0013001300000013
#02815:00130013
#0281b:1313
#02818:0013000000130000
#02812:000000000000000000130000000000000000003333333333
#03315:0013000000130000
#03318:00130013
#03312:0000001300000013
#0331b:2313
#0331f:11
#00412:13130013
#00415:0013
#0041b:0013001300130000
#00418:0000000000000013
#0051b:13131300
#00518:0000000000130000
#00515:00000013
#00512:0013001300000013
#0061b:13130013
#00615:0000000013000013
#00618:0000000000130000
#00612:0013001300000000
#00712:13131300
#00715:0000000000130000
#00718:00000013
#0071b:0013001300000013
#01118:0000000000130000
#01115:0000131300000013
#0111b:0013000013001300
#01112:00000013
#01212:13
#01218:0013001300000000
#01215:00130000
#01315:0013000000130000
#01318:0000130000000013
#01312:00001313
#0131b:0000001300001300
#0141b:13
#01415:0013001300000000
#01418:00130000
#01518:0013000000130000
#01515:0000130000000013
#0151b:00001313
#01512:0000001300001300
#01812:13000013
#01815:0000130000130000
#01818:0013000013000013
#0181b:0000001300000000
#0191b:13000013
#01918:0000130000130000
#01915:0013000013000013
#01912:0000001300000000
#0201b:1313
#02012:00130000
#02018:0000000000130013
#02015:00000013
#02112:13000013
#02115:0000130000130000
#02118:0013000013000013
#0211b:0000001300000000
#0221b:13000013
#02218:0000130000130000
#02215:0013000013000013
#02212:0000001300000000
#02312:13000013
#02315:0000130000130000
#02318:0013000013000000
#0231b:0000001300000000
#02319:0000000000000024
#0261b:0013
#02618:0000000000130013
#02615:00000013
#02712:0013
#02715:0000000000130013
#02718:00000013
#02918:0013000000000000
#02915:00130000
#0291b:0000001300000000
#03015:0013000000000000
#03018:00130000
#03012:0000001300000000
#0301b:13
#03118:0013000000000000
#03115:00130000
#0311b:0000001300000000
#03112:13
#03212:13140000
#03218:1300000000140000
#03213:0000001400000000
#03214:0014
#03219:00000014
#0321a:0000000000000014
#03210:00410000
#03415:0013000000130000
#03418:00130013
#03412:0000001300000013
#0341b:2313
#0361a:0014
#03616:0000001400140014
#03612:00000014
#03718:0013000000130000
#03715:00130013
#0371b:0000001300000013
#03712:2313
#03818:0013000000130000
#03815:00130013
#0381b:0000001300000013
#03812:2313
#0441b:0013
#04418:2300000000130000
#04415:00000013
#04412:0000000000000013
#04512:0013000000001300
#04515:00130000
#04518:0000001300000013
#0451a:24
#04915:0000130000130000
#04918:0013001300000013
#04912:26001313
#0491b:00000013
#0501b:13
#05015:0013000000000000
#05018:00130000
#05012:0000001300000000
#05010:41
#05118:0000130000130000
#05115:0013001300000013
#0511b:00001313
#05112:00000013
#05212:13
#05218:0013000000000000
#05215:00130000
#0521b:0000001300000000
#05315:0000130000130000
#05318:0013001300000013
#05312:00001313
#0531b:00001313
#0541b:13
#05415:0013000000000000
#05418:00130000
#05412:1300001300000000
#05518:0000130000130000
#05515:0013001300000013
#0551b:00001313
#05512:00001313
#05612:13
#05618:0013000000000000
#05615:00130000
#0561b:1300001300000000
#02413:24242400
#02419:0024002400240000
#00058:00000053
#02855:00000063
#0405b:53
#04052:63
#04152:14
#04155:0000005300000000
#0425a:14
#04458:53
#0445b:000000000013000000000000000000000000000000000000
#04652:1400000000000054
#0205b:53
#02052:00530000
#02058:0013000000000000
#02055:0000001300000000
#03355:0013000000130000
#03352:0000001300000013
#03455:0013000000130000
#03452:0000001300000013
#03758:0013000000130000
#0375b:0000001300000013
#03858:0013000000130000
#0385b:0000001300000013
#04558:0000006300000000
#0455a:14
#0475a:0000000000000064
#000380:00000013
#0013b0:23
#008390:0000000000000000000000000000000014545454240000000000000000000000
#0083a0:00000000000000000000000000000000000000000000000000000000000000000054005400540054000000000000000000000000000000000000000000000000
#0103b0:00001333
#010390:000000000000003300003300
#010380:0000000000330033
#0103a0:000000000000000000000000000000000033000000000033
#0113b0:23
#012320:00001333
#012340:000000000000003300003300
#012350:0000000000330033
#012330:000000000000000000000000000000000033000000000033
#013320:23
#014380:00001333
#0143a0:000000000000003300003300
#0143b0:0000000000330033
#014390:000000000000000000000000000000000033000000000033
#015380:23
#0203b0:13
#020380:0023000000000000
#020320:00130000
#020350:0000002300000000
#025350:13
#025320:0023000000000000
#0253b0:00130000
#025380:0000002300000000
#026380:13
#0263b0:0023000000000000
#026320:00130000
#026350:0000002300000000
#027350:13
#027320:0023000000000000
#0273b0:00130000
#027380:0000002300000000
#028350:00000013
#028320:000000000000000000000000000000000000003333333333
#029320:23
#029320:0000000013230000
#029381:0000000013230000
#0293b1:0000000000001323
#029350:0000000000001323
#0303b0:0000000013230000
#030351:0000000013230000
#030321:0000000000001323
#030380:0000000000001323
#031320:0000000013230000
#031381:0000000013230000
#0313b1:0000000000001323
#031350:0000000000001323
#0363b0:13230000
#036321:13230000
#0403b1:13
#040381:0023
#040320:13
#040350:0023
#041350:0000001300000000
#041320:0000000000230000
#044380:13
#0443b0:000000000023000000000000000000000000000000000000
#045380:0000001300000000
#0453b0:0000000000230000
#046320:0000000000000014
#047360:0024000000000000
#0473a0:0000000000000014
#048360:0024000000000000
#0503b0:00001333
#050390:000000000000003300003300
#050380:0000000000330033
#0503a0:000000000000000000000000000000000033000000000033
#0513b0:23
#052320:00001333
#052340:000000000000003300003300
#052350:0000000000330033
#052330:000000000000000000000000000000000033000000000033
#053320:23
#054380:00001333
#0543a0:000000000000003300003300
#0543b0:0000000000330033
#054390:000000000000000000000000000000000033000000000033
#055380:23
#056350:00001333
#056330:000000000000003300003300
#056320:0000000000330033
#056340:000000000000000000000000000000000033000000000033
#057350:3323
