This file was generated by Ched 2.7.0.0.
#TITLE ""
#ARTIST ""
#DESIGNER ""
#DIFFICULTY 0
#PLAYLEVEL
#SONGID ""
#WAVE ""
#WAVEOFFSET 0
#JACKET ""
#REQUEST "ticks_per_beat 480"
#00002: 4
#BPM01: 132
#00008: 01
#TIL00: ""
#HISPEED 00
#MEASUREHS 00
#0001b:00000013
#00012:00000013
#0011b:13131300
#0011a:0000000000130000
#00119:00000013
#00118:0000000000000013
#00112:0013001300000000
#00116:000000140000000000140000000014000000000000000000
#00115:000000000000000000000000000000000014000000000000
#00114:000000000014
#00113:000000000000000000000000000000000000000000000014
#00217:130000000000130000000000130000000000000000000014
#00218:0000000000130000
#00219:00000013
#0021a:0014001400000013
#00212:0013001300000000
#00214:000000000000001400000000
#00215:000000000000000000000000000000000014000000000000
#00216:000000000014
#00818:0013000000001323
#00815:0000130000001323
#00812:1300001300000000
#0081b:13
#00918:001300000000001300000000
#00915:000000000000000013190000000000000000000000000000
#00912:1319000013191300
#00916:0000000000000014
#0091a:000000000014
#00914:000000000000000000000000000000000000000000000014
#0091b:00130013
#00910:41
#01018:140000000000000000000013000000000000000000000000
#01012:0014000016161616
#01016:000014000000000000000000000014000014000014000014
#01015:0000131600000000
#0101b:001300
#01615:000013000000000000000013000013000000000000130000
#0161b:000000130000000000000000000000130000000000000013
#01618:000000000013000013000000000000000013000013000000
#01612:2c002c132c002c00
#01715:160000160000130000190000130013000013000000160013
#01718:000000000000130000000000000000130000000013000000
#0171b:000000000000000000000000130000000013000000000000
#01712:0013001300000000
#01710:41
#01915:160000190000160000000000130013160000000000160000
#0191b:000000000000000000130000000000000013000000000000
#01918:000000000000000000000000000000000000000013000013
#01912:000000130000000000190000000000000013000000000000
#02012:1300000000000000000000001c001c000013000000000000
#02015:000000160000000000160000000000000000160013000000
#0201b:00130000
#02018:000000000000000000000000000000000000000000160013
#02112:161616161c000000
#02118:0000000000130016
#02115:000000000000000000000000000000000000130000000016
#0211b:000000000013
#02312:161600001c000000
#02318:000000000000160000160000000000000000000013000000
#02315:000000000000000000000000000000150000000000260016
#02316:00000015
#02412:2c001c2c001c2c001c2c001c2c001c2c0013000000000000
#02415:000000000000000000131300
#02418:000000000000000000000000000000000000000000130013
#02512:00000013000000000000000013000000001c000000000000
#0251b:000000130000131300000000
#02517:0000001300000000
#02518:000000000000000000000000000000130000000013000000
#02515:000000000000000000000000000000000000000000130013
#02510:41
#02712:0013000000000013
#02717:000000000000130000000000000000130000000013000000
#0271b:0000001300001300
#02718:000000000000000000000000130000000000000000000013
#02818:160000000000001300000000
#02816:000013160000000000000000130000000013000000000000
#02814:000000000013160000001300000000000000000013000000
#02812:000000000000000013000000000000000000000000000013
#02817:0000001300000013
#02819:000000000000000000000013000000000000130000000000
#0281b:0000000000130000
#02915:13130000
#0291b:000000130000000000130000000000000013000000000000
#02918:00130000
#02917:000000000000000000000013000000000000000000000000
#02914:0016
#02919:000000000000001300000000
#02916:000000000000000000000000000000160000000014000014
#02912:0013001300000013
#0311b:000000130000000000130000000000000000000000000013
#03118:000000000000130000000000000000000013000000000000
#03115:000000000000130000000000160013160013000000160000
#03112:130000130000000000130000000000000000000000000013
#03212:0000160000130000
#03215:0000001600000000
#03218:0016
#03214:00000013
#03216:0000000000000013
#03217:000000000000000000000000000000000013000000000000
#03219:000000000013
#0321b:000000000000000000000000000000000000000000000013
#03210:00410000
#03518:000000130000000013000000000000000000130013000013
#0351b:1300130000130000
#03512:1300001300000000000000131c0000130000000000000000
#03515:000000000000130000160000000000000000000000160013
#0391b:130000000000130000000013000000000000000000000000
#03918:000000130000000013000000000000000000000000140000
#03912:130000130000001300000000
#03917:000000000000000000000000000000130000000000000014
#0391a:000000000000000000000000000000000014000000000000
#03915:000013000000000000130000000000000000140000000000
#03916:0013
#03913:000000000000000000000014
#03919:000000000000000000000000000000000000001400000000
#03914:000000000014
#04115:000000160013160016000000000000000000000000000000
#04112:260000000000000000130000000000000013000000000013
#0411b:0000000013130013
#04116:000000000000130000141400
#04118:26
#0411f:21
#04110:00000041
#04218:000000000013000000000000000000000013000000000013
#04212:2c00000000000000131c00000000001300000000001c0000
#0421b:000000000000000000000000130000130000000013000000
#04215:0016160013001600
#04312:190000000000000000130000001300000000130000000000
#04314:000013180000000000000000000000000000000000000000
#0431b:000000000013000000000013000000130000000000130000
#04317:0000001300001300
#04316:000000000000180000000013000000000000000000130000
#04417:0013
#0441b:230000000000000000130000000013000013000000000000
#04415:0013001300000016
#04418:000013000000000000000000000000000000000013000013
#04412:23000000002c000000000000130000000013000000000000
#04416:000000000000001300000000
#0461b:000000000000000013000000130000130000000000000000
#04619:00000013
#04615:000000160013160000000000000000000000000000000000
#04612:2c00001c13000026
#04616:0000000000130000
#04614:00000013
#04618:0000000000000026
#04718:160000160000130013000000000013000000000000260000
#04715:000000000000000000130013000000130013000000000000
#04712:000000001c001c26
#04815:000000000000130000000013000000000000000000000000
#04818:0000001300000000
#0481b:0000130013130013
#04812:160000160000000013000000000000000000130000000000
#04816:0000000000130013
#04817:00000013
#0491b:000000000000130000000000000000000013000000130000
#04918:0016
#04915:000000160000000000160013000000160000000000000000
#04912:230000000013000013000000000013000000000000000000
#04916:00000013
#04917:23
#0501b:130000000013000000000013000000000000000000000000
#05017:000000130000000000130000000000000000000000000013
#05012:001300001300000000000000
#05016:13131800
#0501a:000000000000001300000000
#05019:000000000000000000000000000000000013000000000000
#05018:000000000013
#05015:0000000000190000
#05014:0000001a
#05013:000000000000001b
#05010:41
#0051b:13130000
#00517:000000000000000000000000130000000000000000000014
#00518:0000000000130000
#00519:00000013
#0051a:0000000000000013
#00512:1313001300000000
#00516:000000140000000000140000000000000000000014000000
#00514:000000000000001400000000
#00515:000000000000000000000000000000000014000000000000
#01115:000013190000000000000000000013190000000000000000
#01118:000000000000000013000000000000000000000000000014
#01116:0000000000000014
#01112:160000000000130000190000000000000000130014000000
#0111b:00001313
#01214:14
#0121a:0014000000000000
#01216:000014000000000000000000000014000014000014000014
#01218:0000130016161616
#01212:001300
#01215:000000000000000000160013000000000000000000000000
#01318:161300000000000000000000
#01315:000000000000000013190000000000000000000000000000
#01312:0019000013180000
#01316:0000000000001318
#0131b:000000130000000000131300
#01317:000000000000001300000000
#01314:000000000000000000000000000000000000000000000013
#01414:180000000000000000000013160000000000000000000000
#01412:000000180000000000000000000018000018000018000018
#01417:000013000000000000000000000000140000140000140000
#01418:00160000
#01416:000000000000000013160000000000000000000000000000
#0301b:1313001300000013
#03012:000000130000000000130000000000000013000000000000
#03015:00130000
#03016:000000000000000000000013160000000000000014000014
#03014:000000000000000000000000000013160000000000000000
#03018:00130000
#03315:0013001300130013
#03318:000000130000130000130000000013000000130013000000
#03312:2c13
#0331b:0013
#0331f:11
#03418:0013001300130013
#03415:000000130000130000130000000013000000130013000000
#0341b:2313
#03412:2313
#03712:2c19000013000000
#03718:00130000
#03713:0000001900000000
#0371b:0013
#03714:0000130000190000
#03719:00000013
#03715:0000000000001319
#05715:16
#05712:001c0000
#05716:001400000014000000000000
#05714:001818000000
#05317:000000000013000000000000000000000000000000000000
#05316:000000180000000000001800180000140000140000000000
#0531b:000000000000000000130013000000000013000000130000
#05312:1c0000180000001300000000
#05412:1c0013180000000000000000180000000000000000000000
#0541b:000000000013000000000000000000000000000000000013
#05416:000000000000180013180000000000000000000000000000
#05417:000000000000000000000013000000000000000000000000
#05418:000000000000001300000000
#05419:000000000000000000000000000000000013000000000000
#0541a:000000000013
#05413:0000000000180000
#05414:00000018
#05415:0000000000000018
#01517:14000013
#01515:000013190000000000000000000000000000000000000000
#01518:001300
#01516:000000000000000000000000000013180000000000000000
#01512:000000000000130000190000000000000000130013180000
#01519:000000000000000000000000000000000000000000000013
#0151b:0013
#05112:1c0000000000130000000000160000000013000000130000
#05115:0016001600160000
#0511b:000000000013000013000000000013000000000000000000
#05118:000000000000000000000013000000000000000000000000
#05117:00000013
#05516:180000000013180000000000000000140000140000000000
#05512:000000180000000000131813180000000013000000130000
#0551b:000000000000001300000000
#00312:13131300
#00313:0000000000130000
#00314:00000013
#00315:0000000000000013
#0031b:0013001300000000
#00316:000000140000000000140000000014000000000000000000
#00317:000000000000000000000000000000000014000000000000
#00318:000000000014
#00319:000000000000000000000000000000000000000000000014
#00416:130000130000130000001400
#00415:000000000000000000000000000000130000000000000014
#00414:00000013
#00413:0000000000000013
#0041b:0013001300000000
#00412:0014001400000000
#00418:000000000000001400000000
#00417:000000000000000000000000000000000014000000000000
#00612:13130000
#00616:000000140000000000140000130000000000000014000000
#00615:000000000000000000000000000000130000000000000014
#00614:00000013
#00613:0000000000000013
#0061b:1313001300000000
#00618:000000000000001400000000
#00617:000000000000000000000000000000000014000000000000
#01815:160000160000130000000000000000130000000013160000
#01818:000000000000130000000000130013000013000000000013
#01812:000000000000000000190000130000000013000000000000
#0181b:0013001300000000
#02218:1616161600001300
#02215:000000000000000000000000000000130000000000000016
#02212:0000000000000000000000001c0000000000000013160000
#0261b:0013000013000000
#02612:00000000000013000000000013001300001c000000000000
#02616:0000001300000000
#02615:000000000000000000000000000000130000000013000000
#02618:000000000000000000000000000000000000000000130013
#0361b:0000000013130000
#03619:00000013
#03617:0000000000000013
#03616:000000000000000000000000000000000013000000000000
#03614:000000000013
#03612:000000000000000000130000000000000000000000000013
#03618:0000001300000000
#03615:0013
#03815:0019130000000000
#03814:0000001900001300
#0381b:0013
#03812:2c00000013000019
#03813:0000000000190000
#03819:00130000
#03818:00000013
#04012:140000000013000000000000000000000000000000000000
#04018:0013000013000000
#04015:000013000000000000000013000000000000000000000000
#04017:00130000
#04016:001300
#0401b:0000001300000000
#04518:000000000013000000000000000000000000000000000000
#0451b:000000000000000000130000000000000013000000000013
#04512:2c00000013130013
#04516:000000000000000000141400
#04515:000000160000160016000000000000000000000000000000
#04517:0013
#05212:1300000000130000000000131800001900001a00001b0000
#05216:000000130000000000130000000000000000000000000013
#0521b:001300001300000000000000
#05217:13130000
#05213:000000000000001300000000
#05214:000000000000000000000000000000000013000000000000
#05215:000000000013
#05612:1c0000000013180000180000000000000000000000000013
#05616:000000180000000000000013180000000000000000000000
#0561b:001300000000000000000000
#05617:001300
#05615:000000000000000000000000000013180000000000000000
#05614:000000000000000000000000000000000013180000000000
#05613:000000000000000000000000000000000000000013180000
#00712:13130000
#00716:000000140000000000140000130000000000000014000000
#00715:000000000000000000000000000000130000000000000014
#00714:00000013
#00713:0000000000000013
#0071b:1313001300000000
#00718:000000000000001400000000
#00717:000000000000000000000000000000000014000000000000
#00052:00000053
#01056:000000000000000000000000000044000044000044000044
#01952:000000000000000000190000000000000053000000000000
#01955:0019000000000000
#02055:0016001600000000
#02152:0016001600000000
#01755:0016001900000000
#02352:0016000000000000
#02358:0000001600000000
#0295b:0013000000000000
#02952:0000001300000000
#02956:0000000000560000
#0315b:0013000000000000
#03152:0000001300000000
#03155:000000000000000000000000000000000053000000000000
#03158:000000000000000000000000000000000063000000000000
#03355:0033003300330033
#03458:0043004300430043
#03558:000000000000000000000000000000000000000000000053
#03555:000000000000000000000000000000000000000000000053
#03552:0000000000530000
#03752:0039000000000000
#03753:0000003900000000
#03754:0000000000390000
#03755:0000000000000039
#04152:1600005300000000
#04158:16
#04156:0023
#04252:1c
#04452:00000000001c000000000000000000000053000000000000
#04552:1c
#0455b:0000006300000000
#04557:0023
#04652:1c00000000000056
#04658:0000000000000046
#0505a:000000000000004300000000
#05059:000000000000000000000000000000000043000000000000
#05058:000000000043
#05057:000000000000000000000000000000000000000000000043
#05755:66
#05756:002400000024000000000000
#05754:005858000000
#05752:002c0000
#05458:000000000000004300000000
#05459:000000000000000000000000000000000043000000000000
#0545a:000000000043
#0545b:000000000000000000000000000000000000000000000043
#05356:00000054
#02552:0013000000000000
#02557:0000001300000000
#02752:0013000000000000
#0275b:0000001300000000
#01452:000000000000000000000000000038000038000038000038
#01256:000000000000000000000000000034000034000034000034
#01855:0016000000000000
#01852:0000001900000000
#02258:0016001600000000
#0265b:0013000000000000
#02656:0000001300000000
#03052:0013000000000000
#0305b:0000001300000000
#03054:0000000000660000
#03855:0049000000000000
#03854:0000004900000000
#03853:0000000000490000
#03852:0000000000000049
#03958:000000130000000013000000000000000000000000000000
#03955:000013000000000000130000000000000000000000000000
#04356:000000000000000000000053000000000000000000000000
#04352:000000000000000000000000002300000000000000000000
#04758:2600000000000066
#04752:0000000000000036
#04852:26
#04956:00000053
#05253:000000000000003300000000
#05254:000000000000000000000000000000000033000000000000
#05255:000000000033
#05256:000000000000000000000000000000000000000000000033
#05157:00000063
#05655:000000000000003300000000
#05654:000000000000000000000000000000000033000000000000
#05653:000000000033
#05652:000000000000000000000000000000000000000000000033
#05556:00000064
#000320:00000013
#001360:23
#008380:0000000000000000000000000000000013535353230000000000000000000000
#008390:00000000000000000000000000000000000000000000000000000000000000000053005300530053000000000000000000000000000000000000000000000000
#008351:0000000000000000000000000000000013535353230000000000000000000000
#008341:00000000000000000000000000000000000000000000000000000000000000000053005300530053000000000000000000000000000000000000000000000000
#019321:000000000000000000000000000000000013000000000000
#019351:000000000023
#021381:1626000000000000
#021381:0000162600000000
#021351:000000000000000000000000000013230000000000000000
#021381:000000000000000000000000000000000013230000000000
#022321:1626000000000000
#022321:0000162600000000
#022381:000000000000000000000000000013230000000000000000
#022351:000000000000000000000000000000000013230000000000
#023381:1626000000000000
#023321:0000162600000000
#023321:000000000000000000000000000013230000000000000000
#0233b1:000000000000000000000000000000000013230000000000
#0253b1:13
#025371:0023000000000000
#025361:00130000
#025321:0000002300000000
#026321:13
#026361:0023000000000000
#026371:00130000
#0263b1:0000002300000000
#0273b1:13
#027371:0023000000000000
#027321:00130000
#027361:0000002300000000
#027321:000000000000000000000000000013230000000000000000
#027361:000000000000000000000000000000000013230000000000
#029361:0000000000160000
#029321:000000000000000000000000000000000026000000000000
#030341:0000000000160000
#030381:000000000000000000000000000000000026000000000000
#031351:000000000000000000000000000000000013000000000000
#031321:000000000023
#031380:000000000000000000000000000000000013000000000000
#0313b0:000000000023
#035320:0000000000130000
#035350:00000023
#035350:000000000000000000000000000000000000000000000013
#036320:00230000
#035381:000000000000000000000000000000000000000000000013
#0363b1:00230000
#041321:0000001300230000
#041361:0053
#043361:000000000000000000000013000000230000000000000000
#043321:000000000000000000000000005300000000000000000000
#044321:000000000000000000000000000000000013000000000000
#044351:000000000023
#0453b1:0000001300230000
#045371:0053
#046321:0000000000000016
#047381:56
#047321:0026000000000000
#047381:0000000000000016
#048321:56
#048381:0026000000000000
#049361:00000013
#049321:0000000000000023
#051371:00000013
#0513b1:0000000000000023
#053361:00000014
#053321:0000000000000024
#055361:00000014
#0553a1:0000000000000024
#057351:1626
#057361:005400000054000000000000
#057341:005858000000
#057321:005c0000
