This file was generated by Ched 2.7.0.0.
#TITLE ""
#ARTIST ""
#DESIGNER ""
#DIFFICULTY 0
#PLAYLEVEL
#SONGID ""
#WAVE ""
#WAVEOFFSET 0
#JACKET ""
#REQUEST "ticks_per_beat 480"
#00002: 4
#BPM01: 132
#00008: 01
#TIL00: ""
#HISPEED 00
#MEASUREHS 00
#0011a:1414
#00114:00140014
#00218:1414
#00212:00140014
#0031a:1414
#00314:00140014
#00418:1414
#00412:00140014
#0051a:14140000
#00514:00001414
#00618:14140000
#00612:00001414
#0071a:14140000
#00714:00001414
#00818:14140000
#0081a:0024
#00812:0024
#0091a:1414
#00914:00140014
#00910:41
#01018:14
#01014:00140000
#01112:1414
#01118:00140014
#01214:14
#01218:00140000
#0131a:14
#01314:00140000
#01318:0014
#01312:00000014
#0141a:14
#01414:00140000
#01512:14
#01518:00140000
#01514:0014
#0151a:00000014
#01612:14
#01618:00140000
#01718:14141414
#01710:41
#01814:14141414
#0191a:14140000
#01914:00001414
#02114:14141414
#02218:14141414
#02312:14140000
#02318:00001414
#0251a:14
#02518:00140000
#02516:0014
#02514:00000014
#02510:41
#02612:14
#02614:00140000
#02616:0014
#02618:00000014
#0271a:14
#02718:00140000
#02712:0014
#02714:00000014
#0281a:14
#02912:14
#02914:00140000
#02916:0014
#02918:00000014
#0301a:14
#03018:00140000
#03016:0014
#03014:00000014
#03112:14
#03114:00140000
#0311a:0014
#03118:00000014
#03212:14
#03210:00410000
#03314:00140014
#0331a:1414
#0331f:11
#03412:00140014
#03418:1414
#0351a:14140000
#03514:00001414
#03718:00140014
#03712:1414
#0381a:00140014
#03814:1414
#03912:14140000
#03918:00001414
#04114:00140000
#04118:0014
#04112:00000014
#0411a:24
#0411f:21
#04110:00000041
#04218:14
#04214:00140000
#0421a:0014
#04212:00000014
#0431a:14140000
#04314:0014000000000000
#04312:00001414
#04318:0000000000140000
#0441a:14
#04414:0014
#04418:00000014
#04518:00140000
#04514:0014
#0451a:00000014
#04512:24
#04614:1400000000000024
#04618:00140014
#04612:0014
#0471a:00140000
#04714:0000000014000024
#04718:00000014
#04818:00140014
#04814:0014
#04912:14
#04918:00140000
#04914:0014
#0491a:00000014
#05014:14
#05018:00140000
#05010:41
#0511a:14
#05114:00140000
#05118:0014
#05112:00000014
#05218:14
#05214:00140000
#05312:14
#05318:00140000
#05314:0014
#0531a:00000014
#0551a:14
#05514:00140000
#05518:0014
#05512:00000014
#0561a:24242424
#05612:24242424
#0285a:54
#03252:64
#03354:00140014
#03452:00140014
#03758:00140014
#0385a:00140014
#0445a:54
#04457:000000000014000000000000000000000000000000000000
#010380:00001424
#012340:00001424
#0143a0:00001424
#016320:00001424
#020380:14
#0203a0:0024
#024340:14
#024320:0024
#0283a0:14
#028380:0024
#032320:14
#032340:0024
#0363a0:14
#036380:0024
#040320:14
#040340:0024
#0443a0:14
#044370:000000000024000000000000000000000000000000000000
#050320:00001424
#0523a0:00001424
#054340:1434
#054320:00340024
#0573a0:1424
#057321:1424
