This file was generated by Ched 2.7.0.0.
#TITLE ""
#ARTIST ""
#DESIGNER ""
#DIFFICULTY 0
#PLAYLEVEL
#SONGID ""
#WAVE ""
#WAVEOFFSET 0
#JACKET ""
#REQUEST "ticks_per_beat 480"
#00002: 4
#BPM01: 143
#00008: 01
#TIL00: ""
#HISPEED 00
#MEASUREHS 00
#00419:00140000
#00519:00140000
#00613:00140000
#00713:00140000
#01618:00140000
#01712:00140000
#0181a:00140000
#01810:41
#01914:00140000
#02018:00140000
#02112:00140000
#0221a:00140000
#02314:00140000
#0281a:00140000
#02912:00140000
#03512:00160016
#03418:00160016
#03112:00160016
#03110:41
#03018:00260016
#0301f:00210000
#04518:00160000
#04512:00000016
#04412:00000016
#04418:00160000
#04410:41
#04312:00160000
#04218:00000016
#04212:00160000
#03918:00160016
#03812:00260016
#04919:00000014
#05013:00140000
#05612:00000016
#05618:00160000
#05512:00000016
#05518:00160000
#05318:00000016
#05312:00160000
#05112:00000016
#05118:00260000
#05110:0041
#06118:00160000
#06112:00000016
#05918:00000016
#05912:00260000
#06512:00160000
#06518:00000016
#06612:00160000
#06618:00000016
#00019:00140000
#00213:00140000
#0241f:00110000
#04618:00260000
#04612:00000026
#04718:00260000
#04712:00000026
#06712:00260000
#06718:00000026
#06812:00260000
#00810:41
#06010:41
#0083a0:00140000
#0093a0:0034002400000000
#010340:00140000
#011340:0034002400000000
#012380:00140000
#013380:0034002400000000
#014320:00140000
#015320:0034002400000000
#024380:00140000
#025380:00240000
#026340:00140000
#027340:00240000
#032380:00160026
#033320:00160026
#036380:00160036
#037380:00360026
#040320:00160026
#041380:00160026
#047320:00000016
#049320:00260000
#052380:00160026
#054320:00160026
#057380:00160036
#058380:00360026
#060320:00160026
#062380:00160026
#063320:00160026
#064380:00160026
#069380:00140000
#070380:0034000000002400
#071340:00140000
#072340:0034000000002400
#0733a0:00140000
#0743a0:0034000000002400
#075320:00140000
#076320:0034000000003400
#077320:24
