This file was generated by Ched 2.7.0.0.
#TITLE ""
#ARTIST ""
#DESIGNER ""
#DIFFICULTY 0
#PLAYLEVEL
#SONGID ""
#WAVE ""
#WAVEOFFSET 0
#JACKET ""
#REQUEST "ticks_per_beat 480"
#00002: 4
#BPM01: 143
#00008: 01
#TIL00: ""
#HISPEED 00
#MEASUREHS 00
#0031a:00000012
#00312:0026000000000000
#00318:0026002323000000
#00414:12
#00412:00131313
#0041b:00131313
#00418:0000001300000000
#00415:00000000000000000000130000000013
#0001b:0000131300000000
#00017:0000000013131300
#00012:00232323
#00118:0000000000131300
#0011b:0013000000000000
#00115:0023002323002300
#00212:0000131300000000
#00216:0000000013131300
#0021b:00232323
#00515:0000001300130000
#00518:0000000013000026
#0051b:0000000000130000
#00512:0013
#00517:0013000000000000
#0061b:00131313
#00612:26131313
#00615:0000001300000000
#00618:00000000000000000000130000000013
#00716:0013000014000000
#0071b:00000013
#00715:00000000000000000000000000130000
#00718:0000000000000013
#00712:00000000000000000000140000000013
#0071a:0000002400240000
#00816:00130000
#0081b:0013
#00819:00000013
#00815:26
#0081a:00240000
#00810:41
#00917:13
#00912:0013000000000000
#0091b:0000001300000000
#00915:0000000000000013
#00916:0000001300000000
#01018:13
#0101b:0013000000000000
#01017:00130000
#01012:00241300
#01014:00000013
#01212:00130013
#01218:0013
#0121b:00000013000000000000000000000000
#01118:0000000000000013
#01116:13
#0111b:0013000000000000
#01112:0000001300000000
#01117:0000001300000000
#0131b:0000001300000000
#01312:0013000000000013
#01318:13
#01317:0013000000000000
#01316:0000001300000000
#01415:1313
#01418:0013000000000000
#0141b:00130013
#01615:0000130000131300
#0161b:00130000
#01618:00000000000013001300001300001300
#01612:00000000000000001300000000000013
#01613:2a
#0171b:0000131300000000
#01712:00000000001300130000000000001600
#01718:00001300000000001300130000330000
#01715:00000013000000000013001300000000
#01818:16000000130000000000000000000013
#01812:00130013
#01815:0000001313000013
#0181b:00000000000000001300000000130000
#01810:41
#01918:0016000000130013
#0191b:00001313
#01912:00000000000016000013000000000013
#01915:00000000000000000000001300130000
#02012:0013000013000000
#02015:0000131300000000
#0201b:00000000001300000000130000000000
#02018:00000013000000130000000000000000
#02016:00000000000000000000001300000000
#0201a:0000000000000024
#02115:00000013000000130000000000000000
#02118:0013000013000000
#0211b:0000131300000000
#02112:00130000000000000000130000002400
#02117:00000000000000000000001300000000
#0211a:24
#02215:00130000
#02213:00000013
#02219:0013
#02212:24
#02318:00000013000000130000000000000000
#02312:0013
#02314:0000000000130000
#02316:00000013
#02315:0013130000000000
#0231b:13000023
#02319:00000000000000000000130000000023
#0241c:00120000
#02412:0000120000121200
#02418:00000000000000000000001200000000
#0241f:00110000
#02417:0023000000000000
#0301b:00130013
#03012:2413
#03016:00242413
#0301a:24
#0301f:00210000
#0311b:0013000000130000
#03112:0000001300001300
#03116:0024002400130000
#03117:00000013
#03110:41
#02918:00000022000000000000000013000000
#02915:0000000000000013
#02916:0022220000000000
#0291c:0022
#03212:0000131300001300
#0321b:0000000013000000000000000000000013000000130000000000001300000000
#03218:00130013
#03215:0013
#0331b:0000131300001300
#03312:0000000013000000000000000000000013000000130000000000001300000000
#03315:00130013
#03318:0013
#03412:00130013
#0341b:0013000013000000
#03417:00000013
#03416:00242400
#03512:0013000000130000
#0351b:0000001300001300
#03517:0000000000130000
#03516:0024002400001300
#03616:0013000000230000
#03612:00230013
#03614:0000000000000013
#03617:00230013
#03619:0000000000000013
#0361b:0013000000000000
#03618:00000000000000230000000000000000
#0401b:00130013
#04018:0000000000000000000000001300000013000000000000000000001300000000
#04012:00001313
#04015:0000000013000000130000000000000000000000130000000000001300000000
#04112:0000000000000000130000000000000000000000000000000000001300000000
#04115:0000001313001300
#0411b:0000000000000000000000000000000013000000000000000000001300000000
#04118:0013130000131300
#03716:13000000000000000013000000000000
#0371b:13000000000000000013000000000000
#03715:0000000000000013
#03712:0013001300000000
#03717:0013001300000000
#0381a:00140000
#03812:0013000014000000
#03818:13
#03816:00242413
#03817:00000000000000000000000000000013
#0381b:00000013
#0391a:0014000000000000
#03912:0000001400001300
#03916:0024002400130000
#03917:00000013
#0391b:0000000000130013
#04216:0014140014130000
#04212:00240013
#0421a:00000014
#04217:0000000000000013
#04312:1400000014000026
#0431b:13
#04316:0013001400140000
#0431a:00140000
#04415:0013001300001400
#04412:0000130000000014
#04417:00140000
#0441a:0000001400000000
#0441b:00000013
#04418:2600000000000013
#04410:41
#04518:00000013000000000000000000000000
#04517:00001313
#0451b:0000000000130000
#04512:0000000014000026
#04516:0000000000140000
#04515:00230000
#04612:0013130000000000
#04619:0013
#0461b:00130013
#04616:0013
#04618:26
#04714:13
#04713:0013000000000000
#0471a:0014
#04712:00140024
#04717:13
#0481c:00121212
#04817:00003232
#0491c:12220000
#04919:0012
#04915:00000023
#04917:32
#05012:13000024
#05016:0000000014000024
#0501a:00240000
#06912:0000141400000000
#06916:0000000014141400
#0691a:00242424
#07012:0014000000001400
#07014:0000000000140000
#07016:0014
#0701a:0024002424002400
#0711a:14242424
#07116:0000141400000000
#07112:1400000014141400
#07216:0014000014002800
#0721a:0024002424000000
#0511a:24000014
#05116:0024240000001400
#05110:0041
#0521b:0013000000000000
#05212:0000001300001400
#0521a:0000000000140000
#05216:0024002400141400
#0551b:00130000
#05512:00001314
#05515:0016000000000000
#05516:00242414
#05312:0000141400001400
#0531a:0014000014140000
#05316:00242424
#0541a:0000141400001400
#05412:0014000014140000
#05416:00242424
#0611a:0014140000141400
#06112:0000001414000000
#06116:00242424
#06212:0014140000141400
#0621a:0000001414000000
#06216:00242424
#05716:00001400240000240000000014000000
#05712:00240000
#0571a:0000000000240000
#05816:14000000000014000014000000000000
#0581a:00001400000000000014000000001400
#05812:0014001400000000
#05916:1400141424140000
#05912:0014001400140000
#0591a:00240024
#0601a:2424000014000024
#06016:0000142400001400
#06012:2424000000240000
#06010:41
#0631a:0024140014000000
#06316:0000141414000000
#06312:0000001400000000
#06416:140000140000000014340000140000000000000000000000
#06412:2424000014000000
#0641a:000000000000000014340000000000000000000000000000
#06714:0013
#06712:26130013
#0671b:00130000
#06717:0013
#06819:13
#0681a:0013000000000000
#06812:0012
#0681c:00120000
#06816:13
#06818:0012
#06616:0014000024142400
#0661a:14242400
#06612:1400240000240000
#06618:0000000000000026
#06516:1400001400140014
#0651a:14141400
#06512:00001414
#02616:0012120000001200
#0261c:00000012000000000000000000000000
#02618:0000000000120000
#02516:0000000000120000
#02518:00000012
#0251c:00220000
#02718:0012120000000000
#02712:00000012000000000000130013000000
#02717:0000000000131300
#02716:00000000000000000000000000000013
#0271b:00000000000000000000000000000013
#02812:0013000000242400
#0281b:0013
#0281a:0000000000242400
#01512:0000001300000000
#0151b:0013000000000000
#01515:13
#01516:0023000000000000
#01517:0000002300000000
#05612:0013000000140000
#0561b:0000001300000000
#05616:0024002400141400
#0561a:00000014
#0731a:0000141400000000
#07316:0000000014141400
#07312:28242424
#0741a:0014000000001400
#07416:0014
#07418:0000000000140000
#07412:0024002424002400
#07614:00000012
#07612:2426000000000000
#07618:0026000000000000
#07615:0000002323000000
#0771a:12
#07512:14242424
#0751a:1400000014141400
#07516:0000141400000000
#0035a:00000012
#00352:0056000000000000
#00454:12
#0045b:00000053
#00455:00000000000000000000000000000053
#0015b:0053000000000000
#00158:00000053
#00557:0053000000000000
#00558:0000000000000016
#00652:16000063
#00658:00000000000000000000000000000063
#00756:0063000000000000
#00057:00000053
#00256:00000053
#0025b:13
#00856:00530000
#00855:16
#00952:0013000000000000
#0095b:0000001300000000
#01252:00530053
#01258:0053
#0135b:0000001300000000
#01352:0013000000000000
#01652:00000000000000000000000000000053
#01653:1a
#01752:0000000000000036
#01858:46
#01958:0046000000000000
#02056:00000000000000000000005300000000
#02157:00000000000000000000006300000000
#02356:00000053
#02355:00530000
#0235b:13
#0245c:00520000
#02452:00000062
#0305b:00130053
#03056:00000053
#0305a:14
#03052:1413
#0315b:0013000000630013
#03156:0000000000630013
#03157:00000063
#03152:0000001300006300
#03258:00000000000000000000000053000033
#0325b:0000000000000000000000000000000000000000000000000000002300000000
#03452:00130063
#03457:00000063
#0345b:0013
#0405b:00000000000000000000000063000043
#04058:0000000000000000000000000000000000000000000000000000002300000000
#04052:00000000000000000000000053000033
#04055:0000000000000000000000000000000000000000000000000000002300000000
#04158:00000000000000000000000053000013
#0415b:0000000000000000000000000000000000000000000000000000002300000000
#04155:00000000000000000000000063000013
#04152:0000000000000000000000000000000000000000000000000000002300000000
#0385a:00440000
#03852:0034
#03856:00000053
#0395a:0044000000000000
#03952:0000003400005300
#03956:0000000000630013
#0395b:0000000000000013
#04256:00540000
#04356:0000000000140000
#04352:0000000000000036
#04452:0000530033000024
#04457:00543400
#0445a:0000002400000000
#04455:0000002300006400
#0445b:00000063
#04458:4600000000000023
#04652:00530000
#04656:0023
#0465b:00000063
#04658:46
#0475a:0064
#04752:00540054
#04757:23
#04552:0000000054000036
#04556:0000000000240000
#0455b:43
#04555:44
#06956:00000064
#07052:0064000000001400
#0715a:14
#07152:00000064
#07256:0064000000004800
#0515a:00000024
#05156:00000054
#05152:001c
#0525a:0000000000540044
#05256:0014001400542444
#05252:00000024
#05352:00000054
#05356:00000000000000000000000054000014
#0535a:00000000000000000000000000000014
#0545a:00000064
#05456:00000000000000000000000064000014
#05452:00000000000000000000000000000014
#0615a:00000064
#06156:00000000000000000000000064000014
#06152:00000000000000000000000000000014
#05952:0000000000240000
#05956:0000002454000000
#0595a:00540000
#0605a:0000000024000044
#06056:0000246400002400
#06052:0064000000640034
#06252:00000054
#06256:00000054
#0635a:00545400
#06356:0000542454000000
#06352:0000002400000000
#06456:000000540000000024000000540000000000000000000000
#06452:0054000054000000
#0645a:002400
#0675b:00630000
#06757:0023
#06752:36000053
#06852:0052
#0685c:00620012
#06856:23000012
#06858:0052
#06656:0024000000240000
#06652:64340000
#06658:0000000000000046
#0665a:00445400
#06556:5400002400240024
#0655a:00545400
#06552:00000064
#02656:00520052
#02558:00000062
#02758:00620000
#02757:00000053
#02756:00000000000000000000000000000063
#0275b:00000000000000000000000000000053
#02852:0063000000005400
#0285a:00000054
#07352:38
#07356:00000054
#05756:00000000540000540000000000000000
#02956:00520000
#01057:00630000
#0115b:0013000000000000
#01152:0000001300000000
#0145b:00630063
#01455:0063
#01552:0000001300000000
#0155b:0013000000000000
#02255:00130000
#02259:0013
#02253:00000013
#03355:00000000000000000000000063000043
#03352:0000000000000000000000000000000000000000000000000000002300000000
#03552:0013000000530013
#03557:0000000000530013
#03556:00000053
#0355b:0000001300005300
#05552:00000024
#05556:00141464
#05652:0000000000640034
#05656:0014001400642434
#0565a:00000024
#03752:0000005300000000
#03756:00000000000000000023000000000000
#03757:0000005300000000
#0375b:00000000000000000023000000000000
#05852:0000005400000000
#05856:00000000000054000024000000000000
#0585a:00000000000000000024000000000000
#03652:00530000
#03658:00000000000000530000000000000000
#0745a:0054000000001400
#07654:00000012
#07658:0066000000000000
#0775a:12
#07552:14
#0755a:00000054
#000370:00000013
#0003b0:00000000000000000000000000000023
#0013b0:0013000000000000
#001380:0000002300000000
#001380:00000013
#0023b0:23
#002360:00000013
#002320:00000000000000000000000000000023
#003320:0016000000000000
#003350:0000003323000000
#0043b0:00000013
#004380:00000000000000000000000000000023
#004351:00000000000000000000000000000013
#005321:0023000000000000
#005370:0013000000000000
#0053b0:0000002300000000
#005320:00000013
#005350:0000000000000023
#006320:00000013
#006350:00000000000000000000000000000023
#006381:00000000000000000000000000000013
#0073b1:0023000000000000
#007360:0013000000000000
#007320:0000002300000000
#008360:00130000
#009320:23
#010370:00130000
#0113b0:23
#012350:13000023000000000000000000000000
#012320:00130000
#012350:0023
#012381:0013
#0123b1:00000023
#012320:00000013
#013350:23
#0143b0:00130000
#014380:0023
#014351:0013
#014321:00000023
#0143b0:00000013
#015380:23
#015360:00000014
#016330:2a
#016320:00000000000000000000000000000013
#017350:0023000000000000
#0173b0:00000013
#017380:00000000000000000000000000332300
#018380:0000000000132300
#019320:13
#019350:0023000000000000
#0203b0:13
#020380:0023000000000000
#020360:00000000000000000000001300000000
#020320:0000000000000023
#021370:00000000000000000000001300000000
#0213b0:0000000000000023
#022380:0013230000000000
#022340:00000000000013332300000000000000
#0223a0:00000000000000000000133323000000
#022320:00000000000000000000000000001333
#023320:23
#023350:00130000
#023320:00000000000000230000000000000000
#023360:00000013
#024320:0023000000000000
#0243c0:00120000
#024380:0000000000220000
#024320:00000012
#025360:00220000
#025380:00000012
#0263c0:0022000000000000
#026360:00120000
#026320:0022
#026360:00000012
#027320:0022000000000000
#027380:00120000
#0273c0:0022
#027370:00000013
#0273b0:00000000000000000000000000000033
#028370:0023000000000000
#027361:00000000000000000000000000000013
#028321:0033000000000000
#028361:0023
#028321:00000014
#029361:22
#0283a0:00000014
#029380:22
#029360:00120000
#029320:0022
#0303b0:00000013
#030370:00000000000000000000000000000023
#030361:00000013
#030321:00000000000000000000000000000023
#0313b1:0000000000130023
#031371:00000033
#031360:0000000000130023
#031320:00000033
#032380:00000000000000000000000013000023
#0323b0:0000000000000000000000000000000000000000000000000000005300000000
#033350:00000000000000000000000013000023
#033320:0000000000000000000000000000000000000000000000000000005300000000
#034320:00000013
#034360:00000000000000000000000000000023
#034371:00000013
#0343b1:00000000000000000000000000000023
#035321:0000000000130023
#035361:00000033
#035370:0000000000130023
#0353b0:00000033
#036320:00130000
#036350:00000000000000230000000000000000
#036381:00000000000000130000000000000000
#0363b1:0000000000230000
#037361:00000000130000000053000000000000
#037321:0000003300002300
#0373b0:00000000130000000053000000000000
#037370:0000003300002300
#038360:00000013
#038320:00000000000000000000000000000023
#039360:0000000000130023
#039320:00000033
#0403b0:00000000000000000000000013000023
#040380:0000000000000000000000000000000000000000000000000000005300000000
#040321:00000000000000000000000013000023
#040351:0000000000000000000000000000000000000000000000000000005300000000
#041381:00000000000000000000000013000023
#0413b1:0000000000000000000000000000000000000000000000000000005300000000
#041350:00000000000000000000000013000023
#041320:0000000000000000000000000000000000000000000000000000005300000000
#042360:00140000
#0423a0:0024
#043320:0000142400000000
#0433a0:0000000014240000
#044320:00132300
#044350:0000003300000000
#044371:00142400
#0443a1:0000003400000000
#0443b1:00000013
#044381:0000000000000033
#0453b1:23
#044350:00000014
#044320:0000000000000034
#045350:24
#045320:00001424
#045360:0000000000540000
#046320:00130023
#046360:0053
#0463b1:00000013
#047371:53
#0473b1:00230000
#047320:00140000
#047360:0024
#0473a1:0014
#047361:00000024
#047320:00000014
#048360:00340000
#048370:00003232
#049370:32220000
#051360:00140000
#051320:002c
#0513a0:00000014
#051360:00000000000000000000000000000024
#051361:00000014
#051321:00000000000000000000000000000024
#0523a1:0000000000140024
#052361:00000034
#052360:0000000000140024
#052320:00000034
#053320:00000014
#053360:00000000000000000000000000000024
#053361:00000014
#0533a1:00000000000000000000000000000024
#0543a1:00000014
#054361:00000000000000000000000000000024
#054360:00000014
#054320:00000000000000000000000000000024
#055320:00000014
#055360:00000000000000000000000000000024
#055361:00000014
#0553a1:00000000000000000000000000000024
#056321:0000000000140024
#056361:00000034
#056360:0000000000140024
#0563a0:00000034
#057360:00140000
#0573a0:00000000000000240000000000000000
#057361:00000000000000140000000000000000
#057321:0000000000240000
#057321:0000000000001424
#0573a0:0000000000000014
#0583a0:24
#058360:00000000140000000054000000000000
#058320:0000003400002400
#0583a1:00000000140000000054000000000000
#058361:0000003400002400
#0593a1:00142400
#059361:0000003400000000
#059360:00001424
#059320:0000000000340000
#060320:0014002400000000
#060360:00340000
#060361:0000001400240000
#0603a1:0034
#060320:0000000000140024
#060360:00000034
#0613a0:00000014
#061360:00000000000000000000000000000024
#061361:00000014
#061321:00000000000000000000000000000024
#062321:00000014
#062361:00000000000000000000000000000024
#062360:00000014
#0623a0:00000000000000000000000000000024
#0633a0:0014340034000000
#063360:0000005400002400
#063361:0014340034000000
#063321:0000005400002400
#064321:0014000034000000
#064361:000000000000000054340000000000000000240000000000
#064360:0014000034000000
#0643a0:000000000000000054340000000000000000240000000000
#065360:14
#065320:00240000
#0653a1:00143424
#065361:0000005400540000
#065320:00000014
#065360:0000000000000054
#066320:34240000
#066360:0054000000000000
#0663a0:00001424
#066360:0000000000540000
#0673b0:00130023
#067370:0053
#067321:00000013
#068361:53
#068321:00230000
#0683c0:00120022
#068380:0032
#068321:0012
#068361:00000022
#069361:00000014
#069321:00000000000000000000000000000024
#070321:0014000000000000
#070361:0000002400000000
#071321:00000014
#071361:00000000000000000000000000000024
#072361:0014000000000000
#072321:0000002400000000
#073361:00000014
#0733a1:00000000000000000000000000000024
#0743a1:0014000000000000
#074361:0000002400000000
#0753a1:00000014
#075361:00000000000000000000000000000024
#076381:0016003323000000
