This file was generated by Ched 2.7.0.0.
#TITLE ""
#ARTIST ""
#DESIGNER ""
#DIFFICULTY 0
#PLAYLEVEL
#SONGID ""
#WAVE ""
#WAVEOFFSET 0
#JACKET ""
#REQUEST "ticks_per_beat 480"
#00002: 4
#BPM01: 143
#00008: 01
#TIL00: ""
#HISPEED 00
#MEASUREHS 00
#00015:00130013
#00012:0013
#0001b:00230023
#00018:0023
#00218:00130013
#0021b:0013
#00212:00230023
#00215:0023
#00412:00130013
#00418:1300001300130000
#00415:0013
#0051b:0013000000000000
#00512:0000000013000033
#00518:0000000000130000
#00515:00000013
#01015:0013000000000000
#01018:1313
#0101b:00130013
#00912:0000000000000013
#0091a:0014000000000000
#00914:0000001400000000
#00812:00130013
#00815:0013
#00818:23
#00810:41
#01115:0000000000000013
#01112:0014000000000000
#01118:0000001400000000
#01215:00130013
#01212:0013
#01218:13
#01415:00130000
#01412:1313
#01418:0013000000000013
#0131b:0000000000000013
#01318:0014000000000000
#01312:0000001400000000
#01515:13
#0151a:0014000000000000
#01514:0000001400000000
#01612:00130013
#01618:2600001300000000
#01615:00000000000000001300000000000013
#0161b:0000000000130000
#0171b:00130000
#01715:00000000000013000000003300000000
#01718:0000000013000014
#0181b:0000001300000000
#01818:00000000000000001300000000330033
#01815:0000000000130000
#01814:14
#01810:41
#01912:0013000000000000
#0191b:0000001300000000
#01918:0000000000000013
#01915:00000000000000000033003300000013
#02015:0000001300000000
#02012:00000000133300330000000000000000
#02014:00000000000000000000001400000000
#0201a:0000000000140000
#02118:00000000000013001300001400000000
#02112:00130000000000000000140000000000
#02115:00003333000000130000000000000000
#02212:0013130000000000
#02218:0013130000000000
#02215:00000013
#0221b:00000013
#02318:00000000130000000000000000000024
#02315:00000013000000000000000000000000
#02312:0000000000140000
#0231a:00000024
#02412:00000000140000000000003400000000
#0241f:00110000
#02416:0024000000000000
#02512:0000240000130000
#02518:00000013
#0251a:00240000
#02615:00000013
#02618:00000033000000000000000000000000
#0271b:00000013
#02715:00000033000000000000000000000013
#02818:0013000000000000
#0281a:0000000000142400
#02815:0000000000142400
#02912:00000013
#02915:00000034000000000000000000001300
#0291a:00000034000000000000000000000000
#0301b:0013000000000000
#03012:00140013
#0301a:0014
#03018:23
#0301f:00210000
#0311a:0014000000000000
#03112:0000001400000000
#0311b:0000000000130000
#03118:00000033
#03110:41
#05112:00000014
#05115:00260000
#05118:24
#05114:0024000000000000
#05110:0041
#0521a:0000000000140000
#05218:0026000000000000
#05212:0000002600000000
#03212:0013000000000000
#0321b:00131313
#03215:0000001300130000
#03315:0013000000000000
#03318:00131313
#03312:0000001300130000
#0341a:00140000
#03412:0014
#0341b:00000013
#03415:0013000000000000
#03512:0014000000130000
#0351a:0000001400000000
#03515:00000033
#03812:00130000
#03815:0013000013001300
#03818:13230000
#0381b:00002313
#0361b:00000013
#03615:0000000000000013
#03618:0013000000000000
#03612:00240000
#03614:00000000000000240000000000000000
#03616:0000000000240000
#03718:13
#03712:0013000000000000
#0371b:0000000000000013
#03715:0000331300000000
#0391b:0013000000003300
#03918:0000001300130000
#03912:0000002300130000
#03915:0023000000003300
#0401b:0013000000000000
#04012:00131313
#04018:0000001300130000
#04118:0013000000000000
#04115:00131313
#0411b:0000001300130000
#0421b:0013130000000000
#04215:0000000000130013
#04218:00000013
#04312:1300000000160024
#04318:0013001300000000
#04315:00130000
#0431b:0013
#0431a:0000000000000024
#04418:00130000
#04412:24130000
#04415:00000013
#0441b:00000013
#0441a:24
#04410:41
#0451b:00000013
#04518:0000000000130023
#04515:0013
#04512:00240000
#0451a:00240000
#04612:0013000000001400
#0461a:00140000
#04615:23
#0471a:00140000
#04718:0014
#04712:00001425
#04714:00140000
#04719:00000025
#05014:0014
#05015:13
#05018:00240000
#0501a:00000024
#05012:0000000000000024
#04916:0012
#04918:00000023
#04912:32
#0491c:32
#0551a:00000014
#05512:0014000026000000
#05518:00260000
#05612:0026000000140000
#05618:0000002600000000
#05312:0014000000140000
#05316:0000001400000000
#0531a:00242424
#05712:0014000000001400
#05718:00000000000000240000000000001400
#0571a:00240000
#05716:0000000000240000
#05814:14
#0581a:0014000000000000
#05812:0000000000000014
#05816:0000341400000000
#05916:14
#0591a:0014000000002400
#05912:00240024
#06512:00140000
#06515:00000014
#06518:26
#06517:00240000
#0651a:00000024
#06712:00140000
#0671a:0014000000001400
#06716:14
#0681b:00130000
#06812:00130000
#06116:0014000024000000
#0611a:0000001400140000
#06112:00240024
#06312:0014000000000000
#06316:00000000340034143400000000000000
#06915:00130000
#06912:0013
#0691a:00242424
#07012:0024000000001600
#0701a:0024000000000000
#07014:0000002400000000
#07018:0024
#07118:16130000
#0711b:0013
#07112:00242424
#07412:0024000000001600
#0741a:0024000000000000
#07414:0000002400000000
#07418:0024
#0731b:00130000
#07312:26001326
#07315:00230000
#07318:0023
#07512:00130000
#0751b:0013
#07518:16230026
#07515:0023
#06612:0000250024000014
#06619:00250000
#06616:0000000000240000
#0661a:00000024
#06416:00000000000034143400000000000000
#06412:0000000000000026
#0641a:2424000000000000
#00315:0000002300001300
#0031b:0023000000000000
#00312:0023000000000000
#00312:0023000000000000
#00318:0023
#0061b:00130013
#00615:0000001300130000
#00618:0013
#00712:0013000000000000
#0071b:0013
#00715:00000013
#0541a:0014000000140000
#05416:0000001400000000
#05412:00242424
#07618:0000002400001300
#0761a:0024000000000000
#07612:0023000000000000
#07612:0024000000000000
#07614:0024
#07715:13
#06216:0014000024000000
#06212:0000001400140000
#0621a:00240024
#00112:0023000000000000
#0011b:0023000000000000
#0011b:0023000000000000
#00118:0000002300000000
#00115:0023
#0721a:0024000000000000
#07212:0023000000000000
#07212:0024000000000000
#07218:0000002400002600
#07214:0024
#06018:2626000000000000
#06012:0000000000260000
#06010:41
#04812:00323232
#0481c:00323232
#00452:00000063
#00458:13
#0055b:0063000000000000
#00555:00000063
#00852:00630063
#00855:0063
#00858:13
#0105b:00530053
#01058:0053
#01255:00530053
#01252:0053
#01455:00530000
#01452:0053
#01652:00000053
#01655:00000000000000000000000000000053
#01658:16
#02055:0000002300000000
#02052:00530000
#02054:00000000000000000000001400000000
#02158:00000000000000000000001400000000
#02152:00530000000000000000000000000000
#02252:00530000
#02258:00530000
#02255:00000053
#0225b:00000053
#02358:00530000
#02452:00540000
#02655:00000053
#02558:00000063
#02858:0063000000000000
#02855:00000054
#0285a:00000054
#03052:00140053
#0305a:0014
#05152:00000054
#05155:0016
#0525a:0000000000640000
#05258:0016000000000000
#05252:0000001600000000
#0315b:0000000000630000
#0315a:0014000000000000
#03152:0000001400000000
#03158:0000000000000013
#0325b:00000053
#03258:00000000000000000000000000000013
#03358:00000053
#0335b:00000000000000000000000000000013
#0345b:00000063
#0345a:00140000
#03452:0014
#03552:0014000000530000
#0355a:0000001400000000
#03555:0000000000000013
#03752:0053000000000000
#03755:0000005300000000
#03855:00000053
#0385b:00000053
#03958:0000000000630000
#03952:0000000000630000
#0395b:0000000000000013
#03955:0000000000000013
#04052:00000063
#04055:00000000000000000000000000000013
#04155:00000063
#04152:00000000000000000000000000000013
#0425b:00630000
#04458:00630000
#04452:00630000
#04455:00001353
#0445b:00001353
#0465a:00540000
#04652:00000064
#04352:0000000000160000
#0555a:00000064
#05558:00160000
#05552:0016
#05652:0016000000540000
#05658:0000001600000000
#0585a:0064000000000000
#05856:0000005400000000
#06552:00640000
#06555:00000054
#06557:00640000
#0655a:00000054
#06752:00640000
#0675a:00000054
#06352:0064000000000000
#06356:00000000000000240000000000000000
#07052:00000016
#07452:00000016
#06456:00000000000000240000000000000000
#0645a:0064000000000000
#05952:00540000
#06058:0056000000000000
#06052:0000000000660000
#06055:0000000000000016
#06659:00150000
#06652:00150000
#00652:13
#0065b:00000053
#05356:00000000000000000000000000000014
#0535a:00000054
#06156:00000000000000000000000000000014
#06152:00000054
#06852:00000013
#0685b:00000013
#00355:00000013
#00752:0053000000000000
#00755:00000013
#05456:00000000000000000000000000000014
#05452:00000054
#07658:00000013
#07755:13
#0025b:13
#0095a:0014000000000000
#00954:0000001400000000
#01152:0014000000000000
#01158:0000001400000000
#01358:0014000000000000
#01352:0000001400000000
#0155a:0014000000000000
#01554:0000001400000000
#01758:0000000000000014
#01854:14
#04558:13
#04552:13
#04759:00000055
#04752:00000055
#0625a:00000064
#06256:00000000000000000000000000000014
#07158:16
#07258:00000016
#07352:16
#07558:16
#0013b0:00000013
#0023b0:23
#004320:00000013
#004350:00000000000000000000000000000023
#0053b0:0013000000000000
#005380:0000002300000000
#005350:00000013
#005320:0000000000000033
#006320:23
#0063b0:00000013
#006380:00000000000000000000000000000023
#007320:0013000000000000
#007350:0000002300000000
#008320:00130033
#008350:0033
#009350:23
#0103b0:00130033
#010380:0033
#011380:23
#012350:00130033
#012320:0033
#013320:23
#014350:00130023
#014320:0033
#016320:00000013
#016350:00000000000000000000000000000033
#017320:0023000000000000
#017320:0000000000130000
#017350:00000000000000000000003323000000
#018380:00000000000000000000000013330033
#0183b0:0000000000000033
#019380:23
#019350:00000000000000001333003323000000
#019320:0000000000330000
#020380:1323000000000000
#020320:00000000133300332300000000000000
#020350:0000003300000000
#021320:00130000000000000000000000000000
#021350:00003333230000000000000000000000
#022320:00130000
#022350:0023
#022381:00130000
#0223b1:0023
#0223b1:00000013
#023381:23
#022350:00000013
#023320:23
#023380:00130000
#0233b0:0023
#024320:00000000140000000000003434000000
#024360:0000000000340000
#025320:24
#025380:00000013
#0263b0:0033000000000000
#026380:00000033330000000000230000000000
#026350:00000013
#027320:0033000000000000
#027350:00000033330000000000230000000000
#028380:0013000000000000
#0283b0:0023
#028350:00000014
#029320:0034000000000000
#029350:00000034340000002400000000000000
#0283a1:00000014
#029371:0034000000000000
#0293a1:00000034340000002400000000000000
#030321:00000013
#030351:00000000000000000000000000000023
#0313b1:0000000000130000
#031381:0000000000003323
#0323b1:00000013
#032381:00000000000000000000000000000023
#033381:00000013
#0333b1:00000000000000000000000000000023
#0343b1:00000013
#034381:00000000000000000000000000000023
#035321:0000000000130000
#035351:0000000000003323
#037321:0013000000002300
#037351:0000333300000000
#038351:00000013
#038321:00000000000000000000000000000023
#0383b0:00000013
#038380:00000000000000000000000000000023
#039380:0000000000130000
#0393b0:0000000000003323
#039321:0000000000130000
#039351:0000000000003323
#040321:00000013
#040351:00000000000000000000000000000023
#041351:00000013
#041321:00000000000000000000000000000023
#0423b1:00130000
#042381:0023
#044381:00130000
#0443b1:0023
#044320:00130000
#044350:0023
#044350:00000013
#045320:23
#0443b1:00000013
#045381:23
#0463a1:00140000
#046361:0024
#046321:00000014
#047361:24
#047321:00000015
#048321:00323232
#049321:32220000
#047390:00000015
#0483c0:00323232
#0493c0:32220000
#051350:00162600
#051320:00000014
#051350:00000000000000000000000000000024
#0523a0:0000000000140000
#052370:0000000000000024
#0533a0:00000014
#053360:00000000000000000000000000000024
#054320:00000014
#054360:00000000000000000000000000000024
#0553a0:00000014
#055370:00000000000000000000000000000024
#056320:0000000000140000
#056350:0000000000000024
#0583a0:0014000000002400
#058360:0000343400000000
#059320:00140000
#059360:0024
#060380:0016000000000000
#060350:0000002600000000
#060320:0000000000160000
#060350:0000000000000026
#061320:00000014
#061360:00000000000000000000000000000024
#0623a0:00000014
#062360:00000000000000000000000000000024
#063320:0014000000002400
#063360:00000000340034543400000000000000
#0643a0:0014000000002400
#064360:00000000000034543400000000000000
#065320:00140000
#065350:0024
#065371:00140000
#0653a1:0024
#065351:00000014
#066321:24
#0653a0:00000014
#066370:24
#067320:00140000
#067360:0024
#0673a0:00000014
#068360:24
#068320:00001323
#0683b1:00001323
#0693a1:00000000000000000000000014000024
#069350:00000000000000000000000013000023
#071320:00000000000000000000000014000024
#071381:00000000000000000000000013000023
#0733b1:00000000000000000000000013000023
#073320:00000000000000000000000016000026
#075320:00000000000000000000000013000023
#075381:00000000000000000000000016000026
