This file was generated by Ched 2.7.0.0.
#TITLE ""
#ARTIST ""
#DESIGNER ""
#DIFFICULTY 0
#PLAYLEVEL
#SONGID ""
#WAVE ""
#WAVEOFFSET 0
#JACKET ""
#REQUEST "ticks_per_beat 480"
#00002: 4
#BPM01: 143
#00008: 01
#TIL00: ""
#HISPEED 00
#MEASUREHS 00
#00015:00131313
#00012:0000001300000000
#00018:0000260026132600
#00118:0026002626132600
#00115:00131300
#00112:0013000000001600
#00218:16131313
#0021b:0000001300000000
#00215:0000000000130000
#00212:00262626
#0031b:00000012
#00312:0026000000000000
#00318:0026000000000000
#00316:0000002224000000
#00413:12
#00412:00160013
#00418:00000000260013000000001300000000
#0041b:00001313
#00415:00000000000000130000130000000013
#00517:0013000000000000
#0051b:00000000130000000013000000000000
#00512:0000001300000000
#00519:00000000000000130000000000000000
#00514:0013
#00518:0000000000001326
#00516:0000000000130000
#00515:00000000000000000000000000130000
#0061a:00140000
#00615:00000000000013000000001300000000
#00612:26141313
#00618:00000000000000130000130000000013
#0061b:00000013
#00716:00001300000000000000000000141400
#00712:00131314
#00717:00131300
#0071a:00000000000000000000000000000014
#0071b:0000002300230000
#0081b:00000000000000130000000000000013
#00818:00000000000000000000001300000000
#00812:28
#00819:00250000
#00810:41
#00917:13
#00912:0014000000000000
#00916:0024001400000000
#0091a:0000002400000014
#0111a:0014000000000014
#01116:0024001400000000
#01112:1300002400000000
#0101b:0000001300000013
#01017:00130013
#01016:1400000000130000
#01012:0014250013000000
#0131b:13
#01316:0014002400000000
#0131a:0000001400000000
#01312:0024000000000014
#01212:0000001300000013
#01216:14130013
#01217:0000000000130000
#0121b:0013
#0121a:14000014000000000000000000000000
#01219:00250000
#01516:0014002400000000
#01512:1300001400000000
#01517:00000012
#0151a:0024000000000000
#01412:00000000250000130000000000001300
#01415:00000000000000000000001300000000
#01416:14
#0141a:0014000000000000
#0141b:00000013
#01612:00131313
#0161b:00000000130000001300000000000013
#01618:00000000000013000000001300130000
#01615:00000000000000130000130000001300
#01613:2a
#01712:00001313000000000000000000130000
#0171b:00130000
#01714:00000000001300000000000000000000
#01717:00000000000013130000000000000000
#0171a:0013
#01713:00000000000000000013000000000000
#01716:00000000000000000000131300000000
#01719:00000013
#01718:0000000000000016
#05216:0000141414000000
#05212:00002400140000001400000000000013
#05215:16000000000000000000000000132600
#0521a:0024000000140000
#05218:00000016
#05116:0000281414000000
#0511a:0000000000140000
#05112:0000240000001416
#05118:24000000000000000000000000000013
#0511b:0022000000000000
#05110:0041
#01812:16000000130000001300000000000013
#01815:00000000000013000000000000130000
#01818:00000000000000130000000000001300
#0181b:00131313
#01810:41
#01918:1600000000130013
#01912:0016130013001300
#0191b:00000000130000000000001300000000
#01915:00000000000016000013000000000013
#02012:00001313000000130000000000000000
#02018:13000000000013000000001300002600
#0201b:00130000
#02015:00000000001300000000131300000013
#02118:26000013000000130000131300000013
#02115:00001300000013000000001300000000
#02112:0000130000000026
#02215:00001300000000130000000000000013
#0221b:0013000013000000
#02212:26130013
#02218:00000000130013000000001300000000
#0231b:13000000130000000000000000000013
#02314:00000000000000130000000000000000
#0231a:0000000000130000
#02317:00000013
#02318:00000013000000000000000000000000
#02312:00130023
#02316:00000000000000000000000000000023
#0241c:00120012
#02416:00120012
#02414:0000000000120000
#02419:00000000000000000000001200000000
#0241f:00110000
#02412:0023000000000000
#02512:0000260000121200
#02518:0000260000121200
#0261c:00000012
#02616:00000012
#02612:0000120000120012
#02618:0000120000120012
#0261a:0012000000000000
#02615:00000012000000000000000000000000
#0271c:00120000
#02716:0012120000131300
#02719:00000012000000000000000000000000
#02712:0000001200000000
#02718:0000001200000000
#0271b:00000000000000000000000000000013
#02916:00001414000014000000000012000000
#02918:00000012
#0291a:00240000
#02912:00240000
#02816:0000001300140014
#02812:0013130000002400
#02817:00130000
#0281b:0000001300000000
#0281a:00000024
#03012:2600001300130000
#03016:00151513
#03015:00000000000000000000000000000013
#03018:2600000000000013
#0301b:00232313
#0301f:00210000
#0311b:00131300
#03115:0015001500001300
#03112:0023002300130026
#03118:26000000000000000000000000130000
#03117:0000000000130000
#03110:41
#03212:00000000130000001300000000000016
#03215:0013001300130000
#0321b:00131313
#03218:2600001300130000
#03217:0000000000000000000000000000000000000000000000000000001300000000
#03318:00001300000013000000130000000016
#0331b:00131300
#03312:00131313
#03315:0000001300130000
#03316:0000000000000000000000000000000000000000000000000000001300000000
#0341b:0000001300130000
#03415:0013150015000013
#03417:00000013
#03418:00000000000000000000000000000013
#03412:00232313
#03512:26131300
#03516:0015001500130000
#0351b:0023002300130000
#03518:0000000000001326
#03515:00000000000000000000000000130000
#03618:00001300000000000013000000000013
#0361b:00000000130000230000000000130000
#03615:0000001300001300
#03612:2600230000230013
#0371b:0013000013000013
#03718:00000000130013000000001300000000
#03712:13000013000000002600000026000000
#03715:00000000001300000000130000000013
#03818:1313160016131300
#03812:00130000230000000000000013000000
#03815:00000013000000002300000000001300
#0381b:0000001300000013
#03912:0016131600130016
#03915:00001313
#03918:00000000000023000000000000130000
#0391b:0023000000130000
#04015:0016130013000000
#04012:00000000000013000000130000000016
#0401b:00131313
#04017:0000000000000000000000001300000000000000130000000000001300000000
#04018:16
#04118:00000000130000001300000000000016
#0411b:0000001300130000
#04115:0016000000000000
#04112:00131313
#04116:0000000000000000000000001300000000000000130000000000001300000000
#04217:0013130000000013
#0421b:00130000
#04212:0013000000141300
#04216:00000013
#0421a:0000000000140000
#04316:1300001300000000
#04317:0013130000000000
#0431b:0000001300130000
#04312:0013
#04318:0000000000000026
#04418:00000000000013000000001300000000
#04415:00000000000000130000000000000000
#04412:26000000000000000000130000000013
#0441b:0000230000002313
#04416:0014000000000000
#04410:41
#04515:00001300000000000000130000130000
#04518:00000013260000000013000013002600
#04512:00000000160000001300000013000013
#0451b:00000000000000000000001300000000
#0461a:0014140000000014
#04616:00000014000000000000000000000000
#04612:00140000140000000000000000001400
#04614:0000001400001400
#04618:0000001400001400
#04615:26
#0471c:00121200
#04712:00120024
#04818:00121200
#0481a:00000012
#04817:14
#04812:00143232
#0491a:12
#04918:0012
#04914:0012
#0491c:00220000
#04912:32000023
#05518:0000000000000016
#05515:00000000000000000000000000000013
#05516:0014001414140000
#05512:0000241400140000
#0551a:00240014
#05615:1600000000000026
#05612:0024000000141600
#05618:00000000000000000000000000130000
#0561b:00000000000000000000000000000013
#05616:0000141414000000
#0561a:0024140014000000
#05016:1314
#0501b:12
#05012:00001228
#0501a:00240000
#05015:0000000000000026
#0691c:00000012
#0691a:0000001200120000
#06918:0012
#06912:00262626
#0701a:0000000000120000
#07018:0012000012001600
#07012:0026002626002600
#07112:1c262626
#07118:00120012
#0711a:0000001200120000
#0711c:0012
#0721c:0012000000000000
#07218:0016
#07212:0026002626002900
#0761b:00000012
#07618:2626002200000000
#07612:0026000000000000
#07616:0024
#07713:12
#05316:0014230023000014
#0531b:00000000000013130000000000000000
#05317:00000000000000000000131300000000
#05312:00000000000000000000000014000024
#0531a:00000000000000000000000000140000
#05315:29
#05319:00250000
#05412:00000000250013130000000000140000
#05416:00001400000000000000131300001400
#0541a:00000000000000000000000014000024
#05417:00232300
#05716:0014240000000014
#0571a:00240014
#05712:29000000000000000000000000140014
#05717:00000000000000240000000000000000
#05718:0000002400240000
#05719:00000000000000000024000000000000
#05816:14000000000014000000140000140000
#05812:00001400001400140014001400000000
#05814:00000000000000000000000000000014
#0581a:00242424
#05818:0000000000000024
#0591b:0000001300000000
#05912:0014240000130014
#05918:0000000000130000
#05915:0000001323000000
#0591a:0014000000002414
#05916:24240000
#06012:2c26130000260000
#0601b:00130000
#06015:00000013
#06018:0026000000261300
#06010:41
#06112:00000000250013130000000000000024
#06114:00000000000000000000131300000000
#0611a:00000014
#06116:00001400000000000000000000141400
#0611b:00232300
#0621b:00000000000013130000000000000000
#06219:00000000250000000000131300000000
#06216:0014000000000014
#0621a:00000000000000000000000000140014
#06212:00232324
#0631a:00140014000000000000000000000000
#06316:0014000000000000
#06318:00160000
#06312:2400263212000000
#0631c:0000003212000000
#06515:00000000000013000000001300000000
#06518:00000000000000130000000000000000
#0651b:00000000000000000000130000000013
#06512:2c00230000002313
#06516:0014000000000000
#06618:00001300160000000000130000130000
#06615:00000013000000000013000013000000
#0661b:00000000000000001300000013000013
#06612:00000000260000000000001300002600
#06712:0014240000000014
#06716:00000014000000000000000000000000
#0671a:00140000240000000000000000001400
#06714:0000001400002400
#06718:0000001400002400
#06715:26
#06817:00121222
#06812:00120000
#06418:16001600000032123200000000000000
#06416:00000000000032123200000000000000
#06412:262600000000002c
#07312:00120012
#07314:0000001200120000
#07316:0012
#07315:29
#07318:00262626
#07414:0000000000120000
#07416:0012000012000000
#07412:00000016
#07418:0026002626002600
#07512:1c12
#07516:00120012
#07514:0000001200120000
#07518:00262626
#00055:00000063
#00152:0063000000003600
#00155:00230000
#00258:46000053
#0035b:00000012
#00358:0066000000000000
#00453:12
#0045b:00000053
#00455:00000000000000000000000000000053
#00557:0053000000000000
#0055b:00230000
#00556:0000000000530000
#00558:0000000000000046
#00652:36000063
#00658:00000000000000000000000000000063
#00756:0063000000000000
#00752:00232300
#00952:0034000000000000
#00956:0000003400000000
#0115a:0044000000000000
#01156:0000004400000000
#0105b:0000002300000023
#01057:00530053
#01056:0000000000230000
#01052:0053
#01252:0000002300000023
#01256:54630063
#01257:0000000000230000
#0125b:0063
#01356:0044000000000000
#0135a:0000004400000000
#01556:0034000000000000
#01552:0000003400000000
#01557:00000022
#0145b:00000053
#0165b:00000000000000000000000000000053
#01653:1a
#05256:0000246400440000
#05252:0034000024000000
#05255:0000000000000046
#0525a:0054004400000000
#05156:0000002454003400
#0515a:0000000000240000
#05152:00543400
#0185b:0053
#01852:36
#01958:46
#01952:0036000000006300
#02058:63
#02055:00000000000000000000005300000000
#02158:16000000000000000000006300000000
#0235b:13000000530000000000000000000053
#02357:00000063
#0245c:00520062
#02456:00520062
#01758:0000000000000046
#02552:00160062
#02558:00160062
#0265c:00000052
#02656:00000052
#02652:0000520000000022
#02658:0000520000000022
#0275c:00520000
#02756:00520053
#02752:0000002200000000
#02758:0000002200000000
#0275b:00000000000000000000000000000053
#03056:00353553
#03058:16
#03052:16
#03155:0045004500000000
#03157:0000000000630000
#03152:0000000000000036
#03252:00000000530000005300000000000036
#03255:0000005300530000
#0325b:00000000000000000000000053000043
#03257:0000000000000000000000000000000000000000000000000000002300000000
#03258:46
#03455:00454500
#03457:00000063
#03556:0035003500530000
#03558:0000000000000046
#0365b:00530000
#03652:36
#03758:0000005300000000
#0375b:0023
#03752:53
#03858:00463663
#0385b:0000000000000023
#03855:0000000000000023
#03952:0036004600000036
#04055:00636300
#04052:00000000000063000000630000000036
#0405b:00000000000000000000000053000043
#04057:0000000000000000000000000000000000000000000000000000002300000000
#04058:46
#04158:00000000530000005300000000000046
#0415b:0000005300530000
#04152:00000000000000000000000063000033
#04156:0000000000000000000000000000000000000000000000000000002300000000
#04257:0000530000000053
#0425b:00230000
#04256:00000053
#04356:5300006300130000
#04357:0053530000000000
#0435b:0000005300130000
#04352:0063
#04358:0000000000000046
#04552:00160000
#04558:0000000000000016
#0475c:0062
#04752:00520054
#04857:24
#04852:00540000
#05056:2324
#0505a:00540000
#04958:0022
#0495c:00520000
#04952:00000053
#0695c:00000052
#07058:0062000000004600
#07152:3c
#07158:00000062
#0725c:0052000000000000
#07252:00000039
#0765b:00000012
#07652:0056000000000000
#07753:12
#05856:54
#05852:0054000000000000
#0595b:0000002300000000
#05952:0000340000230000
#05958:0033
#05956:00540044
#05955:0053
#06052:0056231600560016
#0605b:00230000
#06058:0056001600662316
#06055:00000023
#06658:00160000
#06652:0000000000000016
#06857:00526252
#06852:00000012
#06358:00560000
#06352:00562200
#0635c:0022
#06458:00005600000000220000000000000000
#06456:00000000000000220000000000000000
#06452:005600000000004c
#02856:0000002300000024
#02857:00530000
#0285b:0000002300000000
#02852:00530054
#02956:0000002400002200
#02958:00000022
#0295a:00540000
#00852:38
#02252:16130013
#0225b:0013
#04655:16
#0465a:0000540000000024
#04654:0000002400005400
#04652:0000640000000024
#04658:0000002400006400
#05655:0000000000000036
#05656:0000245400340000
#0565a:0044000024000000
#05652:0064003400000000
#05752:39
#05756:00540000
#05757:00000000000000540000000000000000
#05758:0000000000540000
#05355:49
#05356:00535300
#05352:00000000000000000000000000000014
#07355:49
#07352:00000062
#06755:16
#06754:0000002400005400
#06758:0000002400005400
#0675a:0000540000000024
#06752:0000540000000024
#06552:3c
#0335b:00636300
#03358:00000000000063000000630000000046
#03352:00000000000000000000000063000033
#03356:0000000000000000000000000000000000000000000000000000002300000000
#04452:36
#07456:0052000000000000
#07452:00000036
#07552:4c
#07556:00000052
#05457:00636300
#0545a:00000000000000000000000000000014
#05556:0000002464004400
#05552:0000340000240000
#0555a:00544400
#06152:00000000000000000000000000000014
#0615b:00535300
#06252:00535300
#000350:00000013
#000320:00000000000000000000000000000023
#000381:00000000000000000000000016000026
#001321:0013002300000000
#001351:00530000
#002381:00000013
#0023b1:00000000000000000000000000000023
#002320:00000000000000000000000016000026
#003380:0016002200000000
#0043b0:00000013
#004380:00000000000000000000000000000023
#004351:00000000000000000000000000000013
#005321:0023000000000000
#005370:0013002300000000
#0053b0:00530000
#005360:0000000000130000
#005320:00000023
#006320:00000013
#006350:00000000000000000000000000000023
#006381:00000000000000000000000000000013
#0073b1:0023000000000000
#007360:0013002300000000
#007320:00530000
#007320:0013
#007360:0000000000230000
#008320:00130000
#008350:00000000005300230000000000000000
#008370:0013
#008340:00000000000000000053002300000000
#008320:00000013
#008350:00000000000000000000000000530023
#010370:00132300
#0103b0:0000005300000000
#010321:00001323
#010361:0000000000530000
#010370:00000013
#0103b0:0000000000000053
#011370:23
#012360:14
#012320:00000024000000000000000000000000
#012360:00132300
#012320:0000005300000000
#0123b1:00001323
#012371:0000000000530000
#012360:00000013
#012320:0000000000000053
#013360:23
#0143b0:00130000
#014380:00000000005300230000000000000000
#014360:0013
#014390:00000000000000000053002300000000
#0143b0:00000013
#015370:23
#015370:00000012
#016330:2a
#0163b0:00000000000000000000000000000013
#017370:0023000000000000
#0183b0:0013
#018380:0000000000230000
#018351:0000000000132300
#019321:00000013
#019351:0000000000000023
#020381:13
#0203b1:0023000000000000
#020381:0000000013230000
#020351:00000000000000000000001300000000
#020321:0000000000000023
#0213b1:0000132300000000
#021351:0000000013230000
#021381:00000000000000000000001300000000
#0213b1:0000000000000023
#022321:0013
#022351:0000000000230000
#0223b1:00000013
#022381:0000000000000023
#023321:13
#023351:0023000000000000
#0233b1:00130000
#023371:00000000000000230000000000000000
#023341:0000000013230000
#023371:00000013
#0233b1:00000000000000000000000000000033
#024371:0023000000000000
#0243c1:00120000
#024381:0022
#024360:00120000
#024320:0022
#024360:00000012
#025320:22
#0243c1:00000012
#025381:22
#025321:00000012
#026361:22
#025380:00000012
#0263c0:22
#026380:00120000
#0263c0:0022
#026321:00120000
#026361:0022
#0263c1:00000012
#026381:0000000000000052
#0273c1:22
#026360:00000012
#026320:0000000000000052
#027360:22
#0273c0:00122200
#027380:0000005200000000
#027361:00122200
#027321:0000005200000000
#0273b1:0000000000132300
#027360:00000013
#027320:00000000000000000000000000000023
#0273b1:00000000000000000000000000000013
#028371:0023000000000000
#028371:00132300
#0283b1:0000005300000000
#028320:00132300
#028360:0000005300000000
#0283a0:00000014
#0293a0:24
#028321:00000014
#028361:0000000000000054
#029321:24
#029321:00142400
#0293a0:00142400
#029360:0000005400000000
#029380:00000012
#030380:26
#029361:00000012
#030321:26
#0303b1:0000132300000000
#0303b1:0000000013230000
#030361:00000013
#030321:0000000000000023
#031321:0013230000000000
#031321:0000001323000000
#031371:0000000000130000
#0313b1:00000023
#032321:00133323
#032351:0000003300330000
#0323b0:00000000000000000000000013000023
#032370:0000000000000000000000000000000000000000000000000000005300000000
#0333b0:00133323
#033380:0000003300330000
#033321:00000000000000000000000013000023
#033361:0000000000000000000000000000000000000000000000000000005300000000
#034321:0000132300000000
#034321:0000000013230000
#034371:00000013
#0343b1:0000000000000023
#0353b1:0013230000000000
#0353b1:0000001323000000
#035361:0000000000130000
#035321:00000023
#0363b1:00130000
#036381:0000002300000000
#037321:13
#037351:0023000000000000
#037381:0000001300230000
#0373b1:0053
#038321:00130000
#038351:0000002300000000
#038351:0013
#038321:0000000000230000
#038381:00000013
#0383b1:0000000000000053
#039381:23
#038350:0000000000000013
#039320:23
#0393b0:0013000000000000
#039380:00230000
#039380:0000001300000000
#0393b0:0023
#040350:00133323
#040320:0000003300330000
#0403b1:00000000000000000000000013000023
#040371:0000000000000000000000000000000000000000000000000000005300000000
#041381:00133323
#0413b1:0000003300330000
#041320:00000000000000000000000013000023
#041360:0000000000000000000000000000000000000000000000000000005300000000
#0423b0:00130000
#042360:0023
#042371:00130000
#042321:0023
#042361:00000013
#0423b1:0000000000000023
#042370:0000000000000013
#043320:23
#043361:13
#0433b1:0023000000000000
#043370:0013000000000000
#043320:00230000
#043371:00132300
#0433b1:0000003300000000
#043360:0000001300230000
#043320:0033
#044350:00130000
#044320:0000002300000000
#0443b0:0013
#044380:0000000000230000
#044320:00000013
#044350:0000000000000023
#045380:13
#0453b0:0023000000000000
#0453b0:0000001323000000
#0463a0:00142400
#046340:0000005400000000
#046321:00142400
#046381:0000005400000000
#046341:00000014
#0463a1:0000000000000054
#047341:24
#046380:00000014
#046320:0000000000000054
#047380:24
#047320:00120000
#047370:0022
#0473c1:0012
#047371:00000022
#047320:00000014
#048370:54
#048320:00343232
#049320:32220000
#0493c1:00120022
#049381:0052
#049320:00000013
#050360:53
#050320:00230000
#0503a1:00140024
#050361:0054
#051321:00142400
#051361:0000005400000000
#051360:00001424
#0513a0:0000000000540000
#0523a0:0014002400000000
#052360:00540000
#052361:0000001400240000
#052321:0054
#053361:00130000
#053321:0000002300000000
#053361:0013
#053321:0000000000230000
#054371:00130000
#0543b1:0000002300000000
#054371:0013
#0543b1:0000000000230000
#0553a1:00142400
#055361:0000005400000000
#055360:00001424
#055320:0000000000540000
#056320:0014002400000000
#056360:00540000
#056361:0000001400240000
#0563a1:0054
#057361:00140000
#057321:0000002400000000
#057371:00000000000000140000000000000000
#057331:00000000000000000024000000000000
#057381:0000000000140000
#057341:00000024
#058361:14
#0583a1:0024000000000000
#058320:0014000000000000
#058360:00240000
#059360:00140000
#0593b0:0000005300000000
#059380:0023
#059351:0013
#059321:0000000000530000
#059361:00000024
#060321:0016532600000000
#060380:0016002600000000
#0603b0:00530000
#060320:0000000000160026
#060350:00000033
#060381:0000000000163326
#0613b1:00130000
#061371:0000002300000000
#0613b1:0013
#061371:0000000000230000
#062321:00130000
#062361:0000002300000000
#062321:0013
#062361:0000000000230000
#063321:0000163232002600
#063380:00160026
#0633c0:0000003232000000
#064380:00001600000032323200000026000000
#064321:0016000000002600
#064361:00000000000032323200000000000000
#065381:00130000
#0653b1:0000002300000000
#065321:0013
#065351:0000000000230000
#0653b1:00000013
#065381:0000000000000023
#066351:13
#066321:0023000000000000
#066321:0000001323000000
#0673a1:00142400
#067341:0000005400000000
#067320:00142400
#067380:0000005400000000
#067340:00000014
#0673a0:0000000000000054
#068340:24
#067381:00000014
#067321:0000000000000054
#068381:24
#068371:00120000
#0683c1:0022
#068370:0012
#068320:00000022
#068371:00000012
#0693c1:00220000
#0693c1:00000012
#069381:00000000000000000000000000000022
#069320:00000000000000000000000016000026
#070380:0012000000000000
#0703c0:0000002200000000
#071320:00000000000000000000000016000026
#071381:00000012
#0713c1:00000000000000000000000000000022
#0723c1:0012000000000000
#072381:0000002200000000
#073321:00000012
#073361:00000000000000000000000000000022
#073380:00000000000000000000000016000026
#074360:0012000000000000
#074320:0000002200000000
#075380:00000000000000000000000016000026
#075361:00000012
#075321:00000000000000000000000000000022
#076321:0016000000000000
#076361:0000002200000000
