This file was generated by Ched 2.7.0.0.
#TITLE ""
#ARTIST ""
#DESIGNER ""
#DIFFICULTY 0
#PLAYLEVEL
#SONGID ""
#WAVE ""
#WAVEOFFSET 0
#JACKET ""
#REQUEST "ticks_per_beat 480"
#00002: 4
#BPM01: 143
#00008: 01
#TIL00: ""
#HISPEED 00
#MEASUREHS 00
#0041a:00140014
#00414:0014
#0161a:00140014
#01614:0014
#01712:00140014
#01718:0014
#0171a:14
#02018:00140014
#02012:0014
#02114:00140014
#0211a:0014
#02218:00140014
#02214:0014
#03018:00000014
#03012:0014
#03014:14
#0301a:00240000
#0301f:00210000
#04414:0014
#04418:00140000
#04412:14
#0441a:00000024
#04410:41
#05016:00140000
#05012:00000014
#05118:00260014
#05112:0026
#05110:0041
#00514:00140014
#0051a:0014
#00712:00140014
#00718:0014
#00618:00140014
#00612:0014
#00918:0014001400000000
#01114:0014001400000000
#0131a:0014001400000000
#01512:0014001400000000
#0231a:00140000
#02312:0014
#02314:14
#03112:00140000
#0311a:0014
#03114:00000014
#03118:14
#03110:41
#0321a:00140000
#03212:0014
#03218:00000014
#03214:14
#0331a:00140000
#03312:0014
#03318:00000014
#03314:14
#04514:0014
#04518:00000014
#04512:24
#0451a:00240000
#04612:14000014
#0461a:00140000
#0521a:00140000
#05212:0014
#05218:00000014
#05214:14
#06918:00141414
#07114:00141414
#0731a:00140014
#07314:0014
#07512:00140014
#07518:0014
#07718:14
#01812:14
#0181a:0034
#01819:00000034
#01810:41
#0241a:00140000
#02419:0014
#0241f:00110000
#03414:00000014
#0341a:0014
#03412:00140000
#03418:14
#0351a:00140000
#03512:0014
#03518:00000014
#03514:14
#03612:00140000
#0361a:0014
#03614:00000014
#03618:14
#03718:14
#03712:0000000000140000
#03714:00140000
#04815:0014
#0491a:00000014
#0471a:00140000
#04712:00000024
#05318:00140000
#0531a:0014
#05314:14
#05414:14140000
#05412:0014
#05514:00000014
#05512:00140000
#0551a:0014
#05518:14
#05612:00140000
#0561a:0014
#05614:00000014
#05618:14
#05712:00140000
#05718:1414
#05714:00000014
#0581a:14
#05812:0000000000140000
#05814:00140000
#04018:00140000
#04014:0014
#0401a:00000014
#04112:14
#04118:00140000
#04114:0014
#0411a:00000014
#0631a:00140000
#06318:0000000000140000
#06312:14
#06412:00140000
#06414:0000000000140000
#06514:0014
#06518:00140000
#0651a:00000024
#06618:0014
#06614:00000014
#06616:24
#06612:00240000
#0671a:14
#06712:00260000
#06718:00000026
#02512:00000014
#0261a:00000014
#02712:00000014
#0291a:14
#02919:00140000
#04212:14
#04213:00140000
#04219:00140000
#06118:00140000
#06112:0014
#0611a:00000014
#0621a:1414
#06214:00140000
#06212:00000014
#03819:00250000
#0281a:00000024
#06014:00250000
#06010:41
#06812:00260000
#01912:0034
#01913:00000034
#04318:0000003434000000
#00810:41
#07652:00000014
#07758:14
#02058:00000014
#02154:00000014
#0245a:00240000
#02459:0054
#03752:0000000000240000
#03754:00640000
#04855:0024
#04752:00000064
#0475a:00140000
#04652:00000014
#0465a:00140000
#05152:0016
#0535a:0024
#05358:00540000
#05454:00640000
#05452:0024
#05852:0000000000240000
#05854:00640000
#06454:0000000000240000
#06452:00640000
#06358:0000000000240000
#0635a:00640000
#06752:00160000
#06758:00000016
#06852:00160000
#07058:00000014
#07254:00000014
#0745a:00000014
#0265a:00000064
#02752:00000064
#02552:00000064
#02959:00640000
#0295a:24
#000390:00143434
#001390:0034003434002400
#002330:00143434
#003330:0034003434003400
#004330:24
#008380:00140024
#010340:00140024
#012380:00140000
#0123a0:00000024
#014340:00140000
#014320:00000024
#0183a0:00143400
#018390:00000034
#019380:24
#019320:00143400
#019330:00000034
#020340:24
#0233a0:00000000000000000000000014000034
#0243a0:0034340000000000
#024390:0054
#024380:00000034
#025380:00240000
#025320:00000014
#026340:00240000
#0263a0:00000014
#027380:00240000
#027320:00000014
#028340:00240000
#0283a0:00000014
#0293a0:54
#029390:00340000
#029380:00005424
#037340:00140000
#037320:0000000000540000
#038340:24
#038390:00150035
#038370:0035
#039370:25
#039320:00150035
#039340:0035
#040340:25
#042380:00000014
#0433a0:3400000000240000
#043380:0000343434000000
#047320:00000014
#048350:0054
#049320:00240000
#053380:00140024
#0533a0:0034
#054340:00140024
#054320:0034
#058340:00140000
#058320:0000000000540000
#059340:24
#059370:00150035
#059390:0035
#060390:25
#060340:00150035
#060320:0035
#061320:25
#0633a0:00140000
#063380:0000000000540000
#0643a0:24
#064320:00140000
#064340:0000000000540000
#065320:24
#070380:0014003434002400
#072340:0014003434002400
#0743a0:0014003434002400
#076320:0014003434002400
