This file was generated by Ched 2.7.0.0.
#TITLE ""
#ARTIST ""
#DESIGNER ""
#DIFFICULTY 0
#PLAYLEVEL
#SONGID ""
#WAVE ""
#WAVEOFFSET 0
#JACKET ""
#REQUEST "ticks_per_beat 480"
#00002: 4
#BPM01: 90
#00008: 01
#TIL00: ""
#HISPEED 00
#MEASUREHS 00
#0041a:14
#00414:0014
#0051a:14
#00514:0014
#00618:14
#00612:0014
#00610:41
#00718:14
#00712:0014
#0121a:14
#01214:0014
#01318:14
#01312:0014
#01418:14
#01414:0014
#01410:41
#02218:1616
#02212:00160000
#02612:1616
#02618:00160000
#02918:16000016
#02912:0016
#0161f:11
#02118:26
#02112:0026
#0211f:21
#02110:0041
#02512:26
#02518:0026
#02510:0041
#00210:41
#01010:41
#000390:14
#001390:24
#002330:14
#003330:24
#0083a0:14
#0093a0:24
#010320:14
#011320:24
#0153a0:1424
#016320:1434
#017320:3424
#0183a0:1434
#0193a0:3424
#020320:1626
#023320:1626
#024380:1626
#027380:16362600
#028320:16362600
#030320:16000026
#031380:1400000000340000
#0333a0:24
