This file was generated by Ched 2.7.0.0.
#TITLE ""
#ARTIST ""
#DESIGNER ""
#DIFFICULTY 0
#PLAYLEVEL
#SONGID ""
#WAVE ""
#WAVEOFFSET 0
#JACKET ""
#REQUEST "ticks_per_beat 480"
#00002: 4
#BPM01: 90
#00008: 01
#TIL00: ""
#HISPEED 00
#MEASUREHS 00
#00015:1313
#00012:00130000
#00212:1313
#00215:00000013000000000000001300000000
#00210:41
#00515:13
#00518:00000013000000001300000000000000
#00512:0013001300000000
#0051b:1300001300000000
#00815:000000000013000000130000000000000000000000000000
#00818:000000000000000000000000000000000000000000000013
#0081b:00130000
#00812:000000000000000000000033001300000000000000000000
#00718:130000000000000000000000000000000000000000000000133333330000000000000000000000000000000000000000
#0071b:000000000000130000000000000000000000130000000000000000000000000000000000133333330000000000000000
#00712:1300001300000000
#00715:00000013000000000000000000000000
#00912:130000000013000000000000000000000000000013000000
#00918:00130013
#00915:000000000000000013000000000000000013000000000000
#0091b:000000000000000000000000000000000000000000000023
#01012:000000000013
#01018:000000130000000033130000000033130000000000130000
#0101b:13131300
#01015:000000000000000000000000000000000000000000000013
#01010:41
#0131a:140000000000000000000000000000000000000000000014
#01312:140000000013000000000000000000000014000000000000
#01318:00130014
#01315:001300
#01314:000000000014
#01419:001400000000000000000000
#01415:0014000000000000
#01418:000000000014000000000000000000140000000000000000
#01413:0000001400000000
#01417:001400
#01416:240000000000000000000014000000000000000000000000
#01414:00240000
#01412:0024
#01410:41
#01512:0000001300000000
#01518:1300001300000000
#01519:003300000000000000000000
#0151a:0033000000000000
#0191b:0000001300000000
#01916:000034140000000000000000000000000000000000000000
#01912:240000000034000000000000000000000000000000000000
#02012:13
#02015:0000000000000013
#02018:0000000000232300
#02013:003300000000000000000000000000000000000000000000000000000000000000000000000000000000000000000000
#02014:003300000000000000000000000000000000000000000000
#0211b:13
#02118:00130000
#02115:0013
#02112:00000013
#0211f:21
#02110:0041
#0221b:130000000000000000000000000000000013000000000000
#02215:0000001300001300
#02219:000000130000000000000000000000000000000013000000
#02213:0000000013000013
#02217:000000000000130000000000000000000000000000000013
#02216:13
#02214:0013000000000000
#02212:00130000
#0221a:0000001300000000
#02218:0013
#02414:000000000000000000000014000000000000240000000000
#02418:000000000000000000000000240000000014000000130000
#02818:000000000000000000000000000000000013000013000000
#02815:00130013
#02812:130000000000000000000000000000000000000000000013
#0111b:130000000013000000000000000000000000130000000033
#01118:000000000000000013000000000000000000000033130000
#01115:00130000
#01212:000000000013000000000000000000000000000000000000
#01215:0000001300000000
#01218:000000000000000000000013000000000000000000000000
#01216:0000000000000014
#0121b:230000130000001300000000
#02718:00130000
#0271b:13
#02715:000000000000000000000000000000000013000000000000
#02712:000000000000000000000000000000000000330033330033
#02618:000000000000000000130000000000000013000000000000
#02612:13
#02617:13
#02614:0013000000000000
#02616:00130000
#02619:0013000000000000
#0261b:000000000000130000000000000000000000330033330033
#02613:0000001300000000
#02615:0013
#0261a:0013
#03012:14
#03013:003400000000000000000000000000000000000000000000000000000000000000000000000000000000000000000000
#0031b:1300001300000000
#00318:000000000000000000130000000000000000000000003300000000000000000000000000000000000000000000000000
#0031a:000000000033000000000000
#01814:000000000000000000000014000000000000000000000000
#01816:000000000000000000000000000034140000000000000000
#01813:000000000014000000000000000000000000000000000000
#01818:240000000000000000000000000000000000000000000014
#01819:00240000
#0181a:000000000000000000000000240000000034000000000000
#00118:1313
#0011b:00130000
#01712:000000000000000000000000000000000000000000000014
#0171b:23
#02315:0000131300000000
#02318:0000000000002323
#02912:0000001400001400
#0291a:0000000014000014
#02916:0000000000140000
#0291b:23
#00415:1313000013001300
#0041b:23001313
#00418:0000000000130013
#00412:00000033000000000000000000000000
#00618:1313000013001300
#00612:23001313
#00615:0000000000130013
#0061b:00000033000000000000000000000000
#00610:41
#02512:13
#02515:00130000
#02518:0013
#0251b:00000013
#02510:0041
#0161f:11
#01618:23
#00055:5353
#00052:00230000
#00252:5353
#00255:00000023000000000000002300000000
#00758:0053
#0075b:00000063
#0195b:0000006300000000
#01956:0024000000000000
#01952:64
#02052:53
#0215b:63
#02155:0063
#02152:00000063
#02158:00630000
#01058:0023002300230000
#0105b:63636300
#02658:000000000000000000000000000000000063000000000000
#02655:0013
#0265a:0013
#02758:00230000
#0275b:5313
#02755:000000000000000000000000000000000053000000000000
#02257:000000000000000000000000000000000000000000000063
#02258:0013
#02253:0013
#0035b:6300006300000000
#00358:00000023000000001300000000000000
#0125b:130000000000002300000000
#01258:000000000000000000000063000000000000000000000000
#00158:6363
#0015b:00230000
#00858:13
#00855:0000005300000000
#00852:000000000000000000000000002300000000000000000000
#0115b:00000063
#01158:0000000000000063
#0185a:0054
#01856:0000000000240000
#02855:00230000
#02852:6313
#03052:64
#00455:0063000000000000
#00658:0053000000000000
#02552:53
#02555:00530000
#02558:0053
#0255b:00000053
#0295b:63
#01558:63
#02355:0000006300000000
#02358:0000000000000053
#000350:1333
#000320:00530023
#001380:1333
#0013b0:00530023
#002320:1300003333000023
#002350:00000033000000000000003300000000
#0033b0:1300003300000000
#003380:000000000000000000330000000000000000000000003300230000000000000000000000000000000000000000000000
#0033a0:000000000033000000000000
#004350:0013000000000000
#004320:00000033000023000000000000000000
#005350:0000000000130023
#005320:00000033
#006380:0013000000000000
#0063b0:00000033000023000000000000000000
#007380:000000000000000000000000000000000000000000000000133333330000000000000000000000000000000000000000
#0073b0:000000000000000000000000000000000000000000000000000000000000000000000000333333330000000000000000
#008380:23
#008350:0000001300002300
#008320:000000000000000000000033005300000000000000000000
#0093b0:000000000000000000130023000000000000000000000000
#0093b0:000000000000000000000000000000000000000000000013
#0103b0:330000000000330000000000330000000023000000000000
#010380:000000330000000033330000000033330000000000000000
#011320:000000000000000000130023000000000000000000000000
#0113b0:000000000000000000000000000000000013330000000033
#011380:000000000000000000000000000000000000000033330000
#0123b0:23
#012380:000000000000000000000013000000000023000000000000
#0123b0:000000000000005300000000
#0133b0:000000000000000000130023000000000000000000000000
#014340:000000000000000000000000000000000014000024000000
#015380:13
#015390:003300000000000000000000
#0153a0:0033000000000000
#0153b0:000000000023000000000000000000000000000000000000
#015320:0013
#015350:0000000000332300
#015381:0013
#0153b1:0000000000332300
#016351:13
#016341:00330000
#016331:0033
#016321:00000023
#016380:13
#016390:00330000
#0163a0:0033
#0163b0:00000023
#017320:13
#017330:00330000
#017340:0033
#017350:00000023
#0173b1:13
#0173a1:00330000
#017391:0033
#017381:00000023
#0183a1:000000000000000000000000140000000034240000000000
#018361:000000000000000000000000000034340000000000000000
#019321:140000000034240000000000000000000000000000000000
#019361:000034340000000000000000000000000000000000000000
#0193b1:0000001300000000
#019371:00000023
#020321:13
#020331:003300000000000000000000000000000000000000000000000000000000000000000000000000000000000000000000
#020341:003300000000000000000000000000000000000000000000
#020361:0023
#0213b1:1300002300000000
#021381:00330000
#021351:0000000013000023
#021321:00000033
#022371:000000000000000000000000000000000000000000000013
#0233b1:0023000000000000
#023351:0000001300000000
#023321:0000000000230000
#023381:0000000000000013
#0243b1:00230000
#025321:1300002300000000
#025351:00330000
#025381:0000000013000023
#0253b1:00000033
#026381:000000000000000000000000000000000013000000000000
#0263b1:000000000000000000000000000000000000330033330033
#0273b1:3323
#027381:00330000
#027351:000000000000000000000000000000000013000000000000
#027321:000000000000000000000000000000000000330033330033
#028321:3323
#028351:00330000
#0293b1:13
#029371:00230000
#030321:14
#030331:003400000000000000000000000000000000000000000000000000000000000000000000000000000000000000000000
#030341:003400000000000000000000000000000000000000000000
#030361:00000022
#0303b1:0000000000000013
#0303a1:000000000000000000000033
#030391:000000000000000000000000000000000000000000000033
#031381:33
#0313b1:0000000000330000
#033381:23
