This file was generated by Ched 2.7.0.0.
#TITLE ""
#ARTIST ""
#DESIGNER ""
#DIFFICULTY 0
#PLAYLEVEL
#SONGID ""
#WAVE ""
#WAVEOFFSET 0
#JACKET ""
#REQUEST "ticks_per_beat 480"
#00002: 4
#BPM01: 90
#00008: 01
#TIL00: ""
#HISPEED 00
#MEASUREHS 00
#0161f:11
#0161c:00000000000012000000000000000012
#01612:00001200000000000000000000000012
#01619:00121200
#01616:1212000000000000
#0161a:12
#01615:00121200
#01618:0000001200000000
#02212:0000131300001300
#02216:00001300001300130000000000001300
#02217:000000130000000000130000000000000000130000000000000000000000000000000000130000000000000000001300
#0221b:1313000013000013
#02218:000000000000000000000000000000130000000014000000
#02214:000000000000000000000000000000000014000000000000
#0261b:000000000000000000000000000000130000000000000000000000000000000000001300130000000000000000000000
#02616:00130000000000000000000013001400
#0261a:000000000000000000000000000000000000000000000014
#02612:130000000014
#02617:00130000
#02712:160000000000150000000000140000000013130000000014
#02716:00140000000000000000000000001400
#02714:00000000000000000014000000000000
#02715:00000000001400000000000000000000
#02718:0014
#0271a:140000000014
#02719:00140000
#02912:1323000000130013
#0291b:23001313
#02917:00001300000013000000000000130000
#02916:00000000130000001300000000000013
#02316:000000140000140000140000140000140014240000240000
#0231b:0013001300000023
#02312:13001323
#0181b:130000000000000000130000000000000013000000000000
#01812:0013130023000000
#0181a:000000000000000000000000000000000000230000000013
#01816:2300000000231300
#01818:000000000013000000000000000000000000000000000000
#01817:000000230000001300000000
#01813:000000000000000000000013000000000000000000000000
#01917:0023130000000000
#01916:000013000000000000000000000012000000000000120000
#01912:000000000013000000120000000000000000120000000000
#01918:00000012
#0191b:23
#01913:00230000
#0111c:121200
#01118:000000000012000000000012000000000000000000000013
#0111b:0000000000000013
#01112:00000013
#01117:000000000000000000000000000000000013000000000000
#01116:000000000013
#00316:1200001200001300
#00318:00161600
#00312:00000012000000001200000000000000
#00314:000000000000000000000032000000000000000000000000
#00315:000000000032000000000000
#0251b:2313001313001300
#02512:1300130023130013
#02516:00130000000013000000000013000000
#02517:00000000130000000013000000001300
#02510:0041
#02112:2313001313001300
#0211b:1300130023130013
#02117:00130000000013000000000013000000
#02116:00000000130000000013000000001300
#0211f:21
#02110:0041
#01216:000013000000130000000000140000140000140000141400
#01212:260000000000000000000013000000000013000000000013
#0121b:000000130013000013130000000013000000000013000000
#01316:0000000014141414
#01318:160000000000000000000000000000000000000000000012
#0131b:000000000000000000000013000000000013000000000000
#01312:000000130013000013130000000013000000000013000000
#01317:001300130000000000000000
#01016:130000000000130000130000130000130000000012000000
#01012:000000130000000000000000000000000013000000000012
#0101b:2300132323230000
#01017:000000130000000000000000000000000023000000000000
#01018:0000000000000012
#01010:41
#01718:000000000000000000000000000000000000000000000000000000000000000000000000000000000000000000000000000000000000000000000000000000000000000000000000000000000000000000000000000000000000000000000000000000000000000000000000000000000000000000000000000000000000000000000000000000000000000000000000000000000000000000000000000000000000000000000000000000000000000000000000000000000000000000000000000000000000000000000000000000000000000000000000000000000000000000000000000000000000000000000000000000000000000000000000000000000000000000000000000000000000000000000000000000000000000000000000000000000000000000000000000000000000000000000000000000000000000000000000000000000000000000000000000000000000000000000000000000000000000000000000000000000000000000000000000000000000000000000000000000000000000000000000000000000000000000000000000000000000000000000000000000000000000000000000000000000000000000000000000000000000000000000000000000000000000000000000000000000000000000000000000000000000000000000000000000000000000000000000000000000000000000000000000000000000000000000000000000000000000000000000000000000000000000000000000000000000000000000000000000000000000000000000000000000000000000000000000000000000000000000000000000000000000000000000000000000000000000000000000000000000000000000000000000000000000000000000000000000000000000000000000000000000000000000000000000000000000000000000000000000000000000000000000000000000000000000000000000000000000000000000000000000000000000000000000000000000000000000000000000000000000000000000000000000000000000000000000000000000000000000000000000000000000000000000000000000000000000000000000000000000000000000000000000000000000000000000000000000000000000000000000000000000000000000000000000000000000000000000000000000000000000000000000000000000000000000000000000000000000000000000000000000000000000000000000000000000000000000000000000000000000000000000000000000000000000000000000000000000000000000000000000000000000000000000000000000000000000000000000000000000000000000000000000000000000000000000000000000000000000000000000000000000000000000000000000000000000000000000000000000000000000000000000000000000000000000000000000000000000000000000000000000000000000000000000000000000000000000000000000000000000000000000000000000000000000000000000000000000000000000000000000000000000000000000000000000000000000000000000000000000000000000000000000000000000000000000000000000000000000000000000000000000001200000000000000000000000000000000000000000000000000000000000000000000000000000000000000000000000000000000000000000000000000000000000000000000000000000000000000000000000000000000000000000000000000000000000000000000000000000000000000000000000000000000000000000000000000000000000000000000000000000000000000000000000000000000000000000000000000000000000000000000000000000000000000000000000000000000000000000000000000000000000000000000000000000000000000000000000000000000000000000000000000000000000000000000000000000000000000000000000000000000000000000000000000000000000000000000000000000000000000000000000000000000000000000000000000000000000000000000000000000000000000000000000000000000000000000000000000000000000000000000000000000000000000000000000000000000000000000000000000000000000000000000000000000000000000000000000000000000000000000000000000000000000000000000000000000000000000000000000000000000000000000000000000000000000000000000000000000000000000000000000000000000000000000000000000000000000000000000000000000000000000000000000000000000000000000000000000000000000000000000000000000000000000000000000000000000000000000000000000000000000000000000000000000000000000000000000000000000000000000000000000000000000000000000000000000000000000000000000000000000000000000000000000000000000000000000000000000000000000000000000000000000000000000000000000000000000000000000000000000000000000000000000000000000000000000000000000000000
#0171c:0012
#01712:0012
#01716:000000000000000000000000000000000000000000000000000000000000000000000000000000000000000000000000000000000000000000000000000000000000000000000000000000000000000000000000000000000000000000000000000000000000000000000000000000000000000000000000000000000000000000000000000000000000000000000000000000000000000000000000000000000000000000000000000000000000000000000000000000000000000000000000000000000000000000000000000000000000000000000000000000000000000000000000000000000000000000000000000000000000000000000000000000000000000000000000000000000000000000000000000000000000000000000000000000000000000000000000000000000000000000000000000000000000000000000000000000000000000000000000000000000000000000000000000000000000000000000000000000000000000000000000000000000000000000000000000000000000000000000000000000000000000000000000000000000000000000000000000000000000000000000000000000000000000000000000000000000000000000000000000000000000000000000000000000000000000000000000000000000000000000000000000000000000000000000000000000000000000000000000000000000000000000000000000000000000000000000000000000000000000000000000000000000000000000000000000000000000000000000000000000000000000000000000000000000000000000000000000000000000000000000000000000000000000000000000000000000000000000000000000000000000000000000000000000000000000000000000000000000000000000000000000000000000000000000000000000000000000000000000000000000000000000000000000000000000000000000000000000000000000000000000000000000000000000000000000000000000000000000000000000000000000000000000000000000000000000000000000000000000000000000000000000000000000000000000000000000000000000000000000000000000000000000000000000000000000000000000000000000000000000000000000000000000000000000000000000000000000000000000000000000000000000000000000000000000000000000000000000000000000000000000000000000000000000000000000000000000000000000000000000000000000000000000000000000000000000000000000000000000000000000000000000000000000000000000000000000000000000000000000000000000000000000000000000000000000000000000000000000000000000000000000000000000000000000000000000000000000000000000000000000000000000000000000000000000000000000000000000000000000000000000000000000000000000000000000000000000000000000000000000000000000000000000000000000000000000000000000000000000000000000000000000000000000000000000000000000000000000000000000000000000000000000000000000000000000000000000000000000000001200000000000000000000000000000000000000000000000000000000000000000000000000000000000000000000000000000000000000000000000000000000000000000000000000000000000000000000000000000000000000000000000000000000000000000000000000000000000000000000000000000000000000000000000000000000000000000000000000000000000000000000000000000000000000000000000000000000000000000000000000000000000000000000000000000000000000000000000000000000000000000000000000000000000000000000000000000000000000000000000000000000000000000000000000000000000000000000000000000000000000000000000000000000000000000000000000000000000000000000000000000000000000000000000000000000000000000000000000000000000000000000000000000000000000000000000000000000000000000000000000000000000000000000000000000000000000000000000000000000000000000000000000000000000000000000000000000000000000000000000000000000000000000000000000000000000000000000000000000000000000000000000000000000000000000000000000000000000000000000000000000000000000000000000000000000000000000000000000000000000000000000000000000000000000000000000000000000000000000000000000000000000000000000000000000000000000000000000000000000000000000000000000000000000000000000000000000000000000000000000000000000000000000000000000000000000000000000000000000000000000000000000000000000000000000000000000000000000000000000000000000000000000000000000000000000000000000000000000000000000000000000000000000000000000000000000000000000
#01715:000000000000000000000000000000000000000000000013
#00214:00000000000000000000001300000000
#00212:0000120000000013
#0021c:00000012
#00218:0000000000000012
#00219:00000013000000000000000000000000
#0021b:0000001300000000
#00216:0000001200000000
#00210:41
#00916:000000000012000000000012000000000014140000000013
#00912:000012000013
#0091b:000000000000000000000000000000000000000013000023
#00918:12
#02818:16000000000000000014000000000000
#02817:00000000001400000000000000000000
#02816:00140000000000000000000000000000
#02814:0014
#0281b:000000000000000000000000000000000013130000000000
#02813:00140000
#02812:140000000013
#0281a:0014
#02819:00150000
#00712:130000000000130013000000000000000000130000130000
#0071b:000013000000000000000000130000130000000000000000
#00715:000000000000160000001600000000000000160000001600163636360000000000001600163636360000000000001600
#00612:23131313
#00616:000013000000000000130000000000130000000000130000
#00617:000000000013000000000000000000000000000000000000
#00619:001200
#0061a:00000000000000000012001200120012
#0061c:0000000000120012
#00618:00001212
#0061b:0013001300000000
#00610:41
#00417:000013000000000000130000000000130000000000130000
#0041b:23131313
#00416:000000000013000000000000120000000000120000000000
#00415:001200
#00414:00000000000000000012001200120012
#00412:2313001300120012
#00116:0000001200000000
#00112:00120012
#00118:00120012
#0011c:0000000000000012
#00018:0000000000000012
#0001c:12120012
#00016:00120012
#00012:0000001200000000
#02416:001300000000000000000000
#02417:00000000130000000000000000000013
#0241b:130000000000000000000000230013000000000000130000
#02414:000000000013000000000000000000000000000000000000
#02419:0013000000000000
#02415:000000000000000000160016000000160016000016000000
#02412:000000001300000000230000
#02016:00000000000000000000000000000013
#02018:12120000
#0201c:001200000000001200000000000000000000000000000000
#02012:0000000013000013
#02013:000000000000000000000013000000000000000000000000
#02015:000000000013000000000000000000000000000000000000
#02014:00130000
#02017:0000000000222200
#0201a:003200000000000000000000000000000000000000000000000000000000000000000000000000000000000000000000
#01416:000014140012000014140000000014140012000000141400
#01412:260000260013
#0141b:000000000000000000000000000000000000000000000013
#01418:000000000000260000000012000000000000260000000000
#01410:41
#01516:000013000000130000000000000000130000000000000000
#01517:00001313
#01512:160000000000000000000013000000000000130000000000
#0151b:000000130013000013130000000000000000000000000000
#00812:00120012
#00816:000000000000000000120012000000000000000000000012
#0081c:000000000000000000000012000000000000120000000000
#00818:000000000012120000000000000000000000000000000000
#0081b:13
#00518:0000000000000013
#0051b:130000000000000000000000130000001300000000000000000000000000000000000000130000000000000000130000
#00516:00000013
#00512:000000001300000000000000000000000000000000000000130000001300000000000000000000130000000000000000
#00515:000000160016000000160016000000160000000000000000
#03017:13
#03016:000000000000000000000000000000000000000000003232
#03019:003300000000000000000000000000000000000000000000000000000000000000000000000000000000000000000000
#02252:1300636333000000
#0225b:5353430043000000
#02256:00000000002300230000000000000000
#02257:00230023000000000000000000000000
#02655:0013
#02658:0013
#02653:00130000
#0265b:13000000002300000000000023000000
#02657:00630000
#02652:63
#02656:00230000000000000000000000000000
#0175c:00005242
#01752:00005232
#01758:000000000000000000000000000000000000000000000000000000000000000000000000000000000000000000000000000000000000000000000000000000000000000000000000000000000000000000000000000000000000000000000000000000000000000000000000000000000000000000000000000000000000000000000000000000000000000000000000000000000000000000000000000000000000000000000000000000000000000000000000000000000000000000000000000000000000000000000000000000000000000000000000000000000000000000000000000000000000000000000000000000000000000000000000000000000000000000000000000000000000000000000000000000000000000000000000000000000000000000000000000000000000000000000000000000000000000000000000000000000000000000000000000000000000000000000000000000000000000000000000000000000000000000000000000000000000000000000000000000000000000000000000000000000000000000000000000000000000000000000000000000000000000000000000000000000000000000000000000000000000000000000000000000000000000000000000000000000000000000000000000000000000000000000000000000000000000000000000000000000000000000000000000000000000000000000000000000000000000000000000000000000000000000000000000000000000000000000000000000000000000000000000000000000000000000000000000000000000000000000000000000000000000000000000000000000000000000000000000000000000000000000000000000000000000000000000000000000000000000000000000000000000000000000000000000000000000000000000000000000000000000000000000000000000000000000000000000000000000000000000000000000000000000000000000000000000000000000000000000000000000000000000000000000000000000000000000000000000000000000000000000000000000000000000000000000000000000000000000000000000000000000000000000000000000000000000000000000000000000000000000000000000000000000000000000000000000000000000000000000000000000000000000000000000000000000000000000000000000000000000000000000000000000000000000000000000000000000000000000000000000000000000000000000000000000000000000000000000000000000000000000000000000000000000000000000000000000000000000000000000000000000000000000000000000000000000000000000000000000000000000000000000000000000000000000000000000000000000000000000000000000000000000000000000000000000000000000000000000000000000000000000000000000000000000000000000000000000000000000000000000000000000000000000000000000000000000000000000000000000000000000000000000000000000000000000000000000000000000000000000000000000000000000000000000000000000000000000000000000000000000000000000002200000000000000000000000000000000000000000000000000000000000000000000000000000000000000000000000000000000000000000000000000000000000000000000000000000000000000000000000000000000000000000000000000000000000000000000000000000000000000000000000000000000000000000000000000000000000000000000000000000000000000000000000000000000000000000000000000000000000000000000000000000000000000000000000000000000000000000000000000000000000000000000000000000000000000000000000000000000000000000000000000000000000000000000000000000000000000000000000000000000000000000000000000000000000000000000000000000000000000000000000000000000000000000000000000000000000000000000000000000000000000000000000000000000000000000000000000000000000000000000000000000000000000000000000000000000000000000000000000000000000000000000000000000000000000000000000000000000000000000000000000000000000000000000000000000000000000000000000000000000000000000000000000000000000000000000000000000000000000000000000000000000000000000000000000000000000000000000000000000000000000000000000000000000000000000000000000000000000000000000000000000000000000000000000000000000000000000000000000000000000000000000000000000000000000000000000000000000000000000000000000000000000000000000000000000000000000000000000000000000000000000000000000000000000000000000000000000000000000000000000000000000000000000000000000000000000000000000000000000000000000000000000000000000000000000000000000000000
#01756:000000000000000000000000000000000000000000000000000000000000000000000000000000000000000000000000000000000000000000000000000000000000000000000000000000000000000000000000000000000000000000000000000000000000000000000000000000000000000000000000000000000000000000000000000000000000000000000000000000000000000000000000000000000000000000000000000000000000000000000000000000000000000000000000000000000000000000000000000000000000000000000000000000000000000000000000000000000000000000000000000000000000000000000000000000000000000000000000000000000000000000000000000000000000000000000000000000000000000000000000000000000000000000000000000000000000000000000000000000000000000000000000000000000000000000000000000000000000000000000000000000000000000000000000000000000000000000000000000000000000000000000000000000000000000000000000000000000000000000000000000000000000000000000000000000000000000000000000000000000000000000000000000000000000000000000000000000000000000000000000000000000000000000000000000000000000000000000000000000000000000000000000000000000000000000000000000000000000000000000000000000000000000000000000000000000000000000000000000000000000000000000000000000000000000000000000000000000000000000000000000000000000000000000000000000000000000000000000000000000000000000000000000000000000000000000000000000000000000000000000000000000000000000000000000000000000000000000000000000000000000000000000000000000000000000000000000000000000000000000000000000000000000000000000000000000000000000000000000000000000000000000000000000000000000000000000000000000000000000000000000000000000000000000000000000000000000000000000000000000000000000000000000000000000000000000000000000000000000000000000000000000000000000000000000000000000000000000000000000000000000000000000000000000000000000000000000000000000000000000000000000000000000000000000000000000000000000000000000000000000000000000000000000000000000000000000000000000000000000000000000000000000000000000000000000000000000000000000000000000000000000000000000000000000000000000000000000000000000000000000000000000000000000000000000000000000000000000000000000000000000000000000000000000000000000000000000000000000000000000000000000000000000000000000000000000000000000000000000000000000000000000000000000000000000000000000000000000000000000000000000000000000000000000000000000000000000000000000000000000000000000000000000000000000000000000000000000000000000000000000000000000000002200000000000000000000000000000000000000000000000000000000000000000000000000000000000000000000000000000000000000000000000000000000000000000000000000000000000000000000000000000000000000000000000000000000000000000000000000000000000000000000000000000000000000000000000000000000000000000000000000000000000000000000000000000000000000000000000000000000000000000000000000000000000000000000000000000000000000000000000000000000000000000000000000000000000000000000000000000000000000000000000000000000000000000000000000000000000000000000000000000000000000000000000000000000000000000000000000000000000000000000000000000000000000000000000000000000000000000000000000000000000000000000000000000000000000000000000000000000000000000000000000000000000000000000000000000000000000000000000000000000000000000000000000000000000000000000000000000000000000000000000000000000000000000000000000000000000000000000000000000000000000000000000000000000000000000000000000000000000000000000000000000000000000000000000000000000000000000000000000000000000000000000000000000000000000000000000000000000000000000000000000000000000000000000000000000000000000000000000000000000000000000000000000000000000000000000000000000000000000000000000000000000000000000000000000000000000000000000000000000000000000000000000000000000000000000000000000000000000000000000000000000000000000000000000000000000000000000000000000000000000000000000000000000000000000000000000000000000
#0165c:0000002200001200
#01652:0022000000001200
#01659:00525200
#01656:6222000000000000
#0165a:52
#01655:00626200
#01658:0000002200000000
#02952:0053000000630063
#0295b:63006363
#02957:00006300000063000000000000230000
#02956:00000000630000006300000000000023
#00452:3300000000220022
#00454:00000000000000000052005200520052
#00456:00002222
#0215b:63631300
#02152:33005353
#02157:00230000000063000000000000000000
#02156:00000000000000000023000000005300
#02552:53531300
#0255b:43006363
#02556:00230000000053000000000000000000
#02557:00000000000000000023000000006300
#01252:16
#0125b:0000005300000000
#01256:00630000
#0105b:53536300
#01056:53536300
#01052:0053000000000000
#01057:0053000000000000
#02356:0024000024000064
#0235b:0000005300000000
#02352:63
#01458:00160016
#01452:1616
#02452:00000013
#0245b:0000000013000063
#02457:00000000000000000000000000000023
#02752:36353423
#02754:00000000000000000024000000000000
#02755:00000000002400000000000000000000
#02756:00240000000000000000000000000000
#02758:0054
#02759:00540000
#0275a:54
#0185b:63
#01852:00530000
#01856:00000063
#01957:00530000
#01956:000000000000000000000000000022000000000000220000
#01952:0000005200005200
#01158:000000000000000000000012000000000000000000000000
#00356:6200005200002300
#00352:00000062000000005200000000000000
#0025c:00000062
#00258:0000000000000022
#00252:00520000
#00256:0000002200000000
#02858:46000000000000000024000000000000
#02857:00000000002400000000000000000000
#02856:00240000000000000000000000000000
#02854:0064
#0285b:00000053
#02853:00640000
#02852:640000000053
#0285a:0044
#02859:00450000
#00156:0000002200000000
#00152:00520000
#0015c:0000000000000022
#00158:00000052
#00058:0000000000000022
#0005c:00000062
#00052:0000002200000000
#00056:00620000
#02056:00000000000000000000000000000023
#02058:62620000
#0205c:002200000000002200000000000000000000000000000000
#02052:0000000000000053
#01358:16
#01352:0000006300000000
#01357:00530000
#01556:0000630000530000
#01557:00005353
#01552:16000053
#0155b:0000005300000000
#00856:000000000000000000000052000000000000000000000000
#0085c:000000000000000000000052000000000000000000000000
#0085b:13
#00858:00520000
#00755:00005666
#0065a:00000000000000000062006200620062
#0065c:0000000000220022
#00658:00002222
#00558:0000000000000063
#0055b:00000000000000000000000000000023
#00556:00000053
#00552:00000000000000000000000000230000
#03057:63
#00956:000000000000000000000012000000000000000000000000
#000350:12
#000360:00322200
#000320:0000005200000000
#0003b1:0012
#0003c1:00000032
#000381:0000000000000052
#0013c1:22
#001330:12
#001320:00322200
#001360:0000005200000000
#001391:0012
#001381:00000032
#0013c1:0000000000000052
#002381:22
#002330:12
#002320:00322200
#002360:0000005200000000
#0023b1:0012
#0023c1:00000032
#002381:0000000000000052
#0033c1:22
#003360:1200003200005300
#003320:00000032000000003200000000000000
#003350:000000000032000000000000
#003340:000000000000000000000032000000000000000000000000
#004320:23
#004360:00001252
#004340:00000000000000000052005200520052
#004320:0000000000520052
#005360:22
#005360:00000013
#005320:00000000000000000000000000530000
#005350:0000000000000023
#005381:0000000000000013
#0053b1:00000000000000000000000000000053
#006371:23
#006381:00001252
#0063a1:00000000000000000052005200520052
#0063c1:0000000000520052
#007381:22
#007351:000000000000000000000000000000000000000000000000163636360000000000000000000000000000000000000000
#007321:0000000000230000
#007351:000000000000000000000000000000000000000000000000000000000000000000000000163636360000000000000000
#0073b1:0000000000000023
#008381:0000120000220000
#0083c1:000000000000000000000032000000000000000000000000
#008360:000000000000000000000012000000000000000000000000
#008320:0000000000220000
#0093c0:00120000
#009380:002200
#009380:0000001200000000
#0093c0:000000000000000000000022000000000000000000000000
#0103b0:130000000053330000000000000000000000000000000000
#010370:000053330000000023000000000000000000000000000000
#010361:130000000053330000000000000000000000000000000000
#010321:000053330000000023000000000000000000000000000000
#0103b1:0013
#010371:000000000000002300000000
#010360:0013
#010320:000000000000002300000000
#011320:00120000
#011360:002200
#011360:0000001200000000
#011320:000000000000000000000022000000000000000000000000
#012360:00130000
#012320:002300
#0123b0:0000001300000000
#012370:000000000000000000000023000000000000000000000000
#013370:00130000
#0133b0:002300
#013320:0000001300000000
#013360:000000000000000000000023000000000000000000000000
#015360:00130000
#015320:002300
#0153b0:0000001300000000
#015370:000000000000000000000023000000000000000000000000
#015370:0013
#0153b0:00000000000000000053230000000000
#015361:00000000000000000000130000532300
#015321:00000000000000000000005333000000
#015370:00000013
#0153b0:00000000000000000000000000532300
#0163a0:12
#016360:0052000000000000
#016390:00323200
#0163c0:0000005200522200
#016361:12
#016321:0052000000522200
#016351:00323200
#016381:0000005200000000
#0173c1:12323222
#017371:000000000000000000000000000000000000000000000000000000000000000000000000000000000000000000000000000000000000000000000000000000000000000000000000000000000000000000000000000000000000000000000000000000000000000000000000000000000000000000000000000000000000000000000000000000000000000000000000000000000000000000000000000000000000000000000000000000000000000000000000000000000000000000000000000000000000000000000000000000000000000000000000000000000000000000000000000000005200000000000000000000000000005200000000000000000000000000000000000000000000000000000000000000000000000000000000000000000000000000000000000000000000000000000000000000000000000000000000000000000000000000000000000000000000000000000000000000000000000000000000000000000000000000000000000000000000000000000000000000000000000000000000000000000000000000000000000000000000000000000000000000000000000000000000000000000000000000000000000000000000000000000000000000000000000000000000000000000000000000000000000000000000000000000000000000000000000000000000000000000000000000000000000000000000000000000000000000000000000000000000000000000000000000000000000000000000000000000000000000000000000000000000000000000000000000000000000000000000000000000000000000000000000000000000000000000000000000000000000000000000000000000000000000000000000000000000000000000000000000000000000000000000000000000000000000000000000000000000000000000000000000000000000000000000000000000000000000000000000000000000000000000000000000000000000000000000000000000000000000000000000000000000000000000000000000000000000000000000000000000000000000000000000000000000000000000000000000000000000000000000000000000000000000000000000000000000000000000000000000000000000000000000000000000000000000000000000000000000000000000000000000000000000000000000000000000000000000000000000000000000000000000000000000000000000000000000000000000000000000000000000000000000000000000000000000000000000000000000000000000000000000000000000000000000000000000000000000000000000000000000000000000000000000000000000000000000000000000000000000000000000000000000000000000000000000000000000000000000000000000000000000000000000000000000000000000000000000000000000000000000000000000000000000000000000000000000000000000000000000000000000000000000000000000000000000000000000000000000000000000000000000000000000000000000000000000000000000000000000000000000000000000000000000000000000000000000000000000000000000000000000000000000000000000000000000000000000000000000000000000000000000000000000000000000000000000000000000000000000000000000000000000000000000000000000000000000000000000000000000000000000000000000000000000000000000000000000000000000000000000000000000000000000000000000000000000000000000000000000000000000000000000000000000000000000000000000000000000000000000000000000000000000000000000000000000000000000000000000000000000000000000000000000000000000000000000000000000000000000000000000000000000000000000000000000000000000000000000000000000000000000000000000000000000000000000000000000000000000000000000000000000000000000000000000000000000000000000000000000000000000000000000000000000000000000000000000000000000000000000000000000000000000000000000000000000000000000000000000000000000000000000000000000000000000000000000000000000000000000000000000000000000000000000000000000000000000000000000000000000000000000000000000000000000000000000000000000000000000000000000000000000000000000000000000000000000000000000000000000000000000000000000000000000000000000000000000000000000000000000000000000000000000000000000000000000000000000000000000000000000000000000000000000000000000000000000000000000000000000000000000000000000000000000000000000000000000000000000000000000000000000000000000000000000000000000000000000000000000000000000000000000000000000000000000000000000000000000000000000000000000000000000000000000000000000000000000000000000000000000000000
#017361:0034000000000000
#017381:000000000000000000000000000000000000000000000000000000000000000000000000000000000000000000000000000000000000000000000000000000000000000000000000000000000000000000000000000000000000000000000000000000000000000000000000000000000000000000000000000000000000000000000000000000000000000000000000000000000000000000000000000000000000000000000000000000000000000000000000000000000000000000000000000000000000000000000000000000000000000000000000000000000000000000000000000000000000000000000000000000000000000000000000000000000000000000000000000000000000000000000000000000000000000000000000000000000000000000000000000000000000000000000000000000000000000000000000000000000000000000000000000000000000000000000000000000000000000000000000000000000000000000000000000000000000000000000000000000000000000000000000000000000000000000000000000000000000000000000000000000000000000000000000000000000000000000000000000000000000000000000000000000000000000000000000000000000000000000000000000000000000000000000000000000000000000000000000000000000000000000000000000000000000000000000000000000000000000000000000000000000000000000000000000000000000000000000000000000000000000000000000000000000000000000000000000000000000000000000000000000000000000000000000000000000000000000000000000000000000000000000000000000000000000000000000000000000000000000000000000000000000000000000000000000000000000000000000000000000000000000000000000000000000000000000000000000000000000000000000000000000000000000000000000000000000000000000000000000000000000000000000000000000000000000000000000000000000000000000000000000000000000000000000000000000000000000000000000000000000000000000000000000000000000000000000000000000000000000000000000000000000000000000000000000000000000000000000000000000000000000000000000000000000000000000000000000000000000000000000000000000000000000000000000000000000000000000000000000000000000000000000000000000000000000000000000000000000000000000000000000000000000000000000000000000000000000000000000000000000000000000000000000000000000000000000000000000000000000000000000000000000000000000000000000000000000000000000000000000000000000000000000000000000000000000000000000000000000000000000000000000000000000000000000000000000000000000000000000000000000000000000000000000000000000000000000000000000000000000000000000000000000000000000000000000000000000000000000000000000000000000000000000000000000000000000000000005200000000000000340000000000005200000000000000000000000000000000000000000000000000000000000000000000000000000000000000000000000000000000000000000000000000000000000000000000000000000000000000000000000000000000000000000000000000000000000000000000000000000000000000000000000000000000000000000000000000000000000000000000000000000000000000000000000000000000000000000000000000000000000000000000000000000000000000000000000000000000000000000000000000000000000000000000000000000000000000000000000000000000000000000000000000000000000000000000000000000000000000000000000000000000000000000000000000000000000000000000000000000000000000000000000000000000000000000000000000000000000000000000000000000000000000000000000000000000000000000000000000000000000000000000000000000000000000000000000000000000000000000000000000000000000000000000000000000000000000000000000000000000000000000000000000000000000000000000000000000000000000000000000000000000000000000000000000000000000000000000000000000000000000000000000000000000000000000000000000000000000000000000000000000000000000000000000000000000000000000000000000000000000000000000000000000000000000000000000000000000000000000000000000000000000000000000000000000000000000000000000000000000000000000000000000000000000000000000000000000000000000000000000000000000000000000000000000000000000000000000000000000000000000000000000000000000000000000000000000000000000000000000000000000000000000000000000000000000000000000000000000000000
#017320:12323222
#017370:000000000000000000000000000000000000000000000000000000000000000000000000000000000000000000000000000000000000000000000000000000000000000000000000000000000000000000000000000000000000000000000000000000000000000000000000000000000000000000000000000000000000000000000000000000000000000000000000000000000000000000000000000000000000000000000000000000000000000000000000000000000000000000000000000000000000000000000000000000000000000000000000000000000000000000000000000000000000000000000000000000000000000000000000000000000000000000000000000000000000000000000000000000000000000000000000000000000000000000000000000000000000000000000000000000000000000000000000000000000000000000000000000000000000000000000000000000000000000000000000000000000000000000000000000000000000000000000000000000000000000000000000000000000000000000000000000000000000000000000000000000000000000000000000000000000000000000000000000000000000000000000000000000000000000000000000000000000000000000000000000000000000000000000000000000000000000000000000000000000000000000000000000000000000000000000000000000000000000000000000000000000000000000000000000000000000000000000000000000000000000000000000000000000000000000000000000000000000000000000000000000000000000000000000000000000000000000000000000000000000000000000000000000000000000000000000000000000000000000000000000000000000000000000000000000000000000000000000000000000000000000000000000000000000000000000000000000005200000000000000000000000000005200000000000000000000000000000000000000000000000000000000000000000000000000000000000000000000000000000000000000000000000000000000000000000000000000000000000000000000000000000000000000000000000000000000000000000000000000000000000000000000000000000000000000000000000000000000000000000000000000000000000000000000000000000000000000000000000000000000000000000000000000000000000000000000000000000000000000000000000000000000000000000000000000000000000000000000000000000000000000000000000000000000000000000000000000000000000000000000000000000000000000000000000000000000000000000000000000000000000000000000000000000000000000000000000000000000000000000000000000000000000000000000000000000000000000000000000000000000000000000000000000000000000000000000000000000000000000000000000000000000000000000000000000000000000000000000000000000000000000000000000000000000000000000000000000000000000000000000000000000000000000000000000000000000000000000000000000000000000000000000000000000000000000000000000000000000000000000000000000000000000000000000000000000000000000000000000000000000000000000000000000000000000000000000000000000000000000000000000000000000000000000000000000000000000000000000000000000000000000000000000000000000000000000000000000000000000000000000000000000000000000000000000000000000000000000000000000000000000000000000000000000000000000000000000000000000000000000000000000000000000000000000000000000000000000000000000000000000000000000000000000000000000000000000000000000000000000000000000000000000000000000000000000000000000000000000000000000000000000000000000000000000000000000000000000000000000000000000000000000000000000000000000000000000000000000000000000000000000000000000000000000000000000000000000000000000000000000000000000000000000000000000000000000000000000000000000000000000000000000000000000000000000000000000000000000000000000000000000000000000000000000000000000000000000000000000000000000000000000000000000000000000000000000000000000000000000000000000000000000000000000000000000000000000000000000000000000000000000000000000000000000000000000000000000000000000000000000000000000000000000000000000000000000000000000000000000000000000000000000000000000000000000000000000000000000000000000000000000000000000000000000000000000000000000000000000000000000000000000000000000000000000000000000000000000000000000000000000000000000000000000000000000000000000000000000000000000000000
#017360:000000000000000000000000000000000000000000000000000000000000000000000000000000000000000000000000000000000000000000000000000000000000000000000000000000000000000000000000000000000000000000000000000000000000000000000000000000000000000000000000000000000000000000000000000000000000000000000000000000000000000000000000000000000000000000000000000000000000000000000000000000000000000000000000000000000000000000000000000000000000000000000000000000000000000000000000000000000000000000000000000000000000000000000000000000000000000000000000000000000000000000000000000000000000000000000000000000000000000000000000000000000000000000000000000000000000000000000000000000000000000000000000000000000000000000000000000000000000000000000000000000000000000000000000000000000000000000000000000000000000000000000000000000000000000000000000000000000000000000000000000000000000000000000000000000000000000000000000000000000000000000000000000000000000000000000000000000000000000000000000000000000000000000000000000000000000000000000000000000000000000000000000000000000000000000000000000000000000000000000000000000000000000000000000000000000000000000000000000000000000000000000000000000000000000000000000000000000000000000000000000000000000000000000000000000000000000000000000000000000000000000000000000000000000000000000000000000000000000000000000000000000000000000000000000000000000000000000000000000000000000000000000000000000000000000000000000000000000000000000000340000000000000000000000000000000000000000000000000000000000000000000000000000000000000000000000000000000000000000000000000000000000000000000000000000000000000000000000000000000000000000000000000000000000000000000000000000000000000000000000000000000000000000000000000000000000000000000000000000000000000000000000000000000000000000000000000000000000000000000000000000000000000000000000000000000000000000000000000000000000000000000000000000000000000000000000000000000000000000000000000000000000000000000000000000000000000000000000000000000000000000000000000000000000000000000000000000000000000000000000000000000000000000000000000000000000000000000000000000000000000000000000000000000000000000000000000000000000000000000000000000000000000000000000000000000000000000000000000000000000000000000000000000000000000000000000000000000000000000000000000000000000000000000000000000000000000000000000000000000000000000000000000000000000000000000000000000005200000000000000000000000000005200000000000000000000000000000000000000000000000000000000000000000000000000000000000000000000000000000000000000000000000000000000000000000000000000000000000000000000000000000000000000000000000000000000000000000000000000000000000000000000000000000000000000000000000000000000000000000000000000000000000000000000000000000000000000000000000000000000000000000000000000000000000000000000000000000000000000000000000000000000000000000000000000000000000000000000000000000000000000000000000000000000000000000000000000000000000000000000000000000000000000000000000000000000000000000000000000000000000000000000000000000000000000000000000000000000000000000000000000000000000000000000000000000000000000000000000000000000000000000000000000000000000000000000000000000000000000000000000000000000000000000000000000000000000000000000000000000000000000000000000000000000000000000000000000000000000000000000000000000000000000000000000000000000000000000000000000000000000000000000000000000000000000000000000000000000000000000000000000000000000000000000000000000000000000000000000000000000000000000000000000000000000000000000000000000000000000000000000000000000000000000000000000000000000000000000000000000000000000000000000000000000000000000000000000000000000000000000000000000000000000000000000000000000000000000000000000000000000000000000000000000000000000000000000000000000000000000000000000000000000000000000000000000000000000000000000000000000
#017340:0000000000340000
#0183b0:13
#018370:00532300000000000000000000000000
#018320:00130000
#018360:00000000005323000000000000000000
#018360:00000013
#018320:0000000000000023
#019370:00130000
#0193b0:0000002300000000
#019321:0000001200003200
#019361:000000000000000000000000000052000000000000520000
#020321:22
#020380:12322200
#0203a0:003200000000000000000000000000000000000000000000000000000000000000000000000000000000000000000000
#0203c0:003200000000005200000000000000000000000000000000
#020320:0000000000000013
#020360:00000000000000000000000000000053
#021320:23
#0213b1:13000000330000532300000000000000
#021371:00530000005333000000000000000000
#021320:00000000000000001300000033000053
#021360:00000000000000000053000000533300
#022320:23
#0223b1:1333230000000000
#022371:00530053000000000000000000000000
#022320:0000133323000000
#022360:00000000005300530000000000000000
#023320:13230000
#023360:0054000000000000
#0233b0:0000001300230000
#023360:0054
#023360:0000000000000014
#024320:24
#0243b0:0000000000000013
#024370:00000000000000000000000000000053
#0253b0:23
#025321:13000000330000532300000000000000
#025361:00530000005333000000000000000000
#0253b0:00000000000000001300000033000053
#025370:00000000000000000053000000533300
#0263b0:23
#026321:13
#026361:00530000000000000000000000000000
#026331:0033230000000000
#026370:0013330000000000
#0263b0:00000000005300000000000000000000
#026380:0000003323000000
#026351:0000001323000000
#0263b1:00000013
#026371:000000000023
#0273a1:14
#027361:00540000000000000000000000000000
#027391:00340000
#027351:00000000005400000000000000000000
#027381:0034
#027341:00000000000000000054000000000000
#027371:00000024
#027320:00000013
#027360:000000000023
#028320:14
#028360:00540000000000000000000000000000
#028330:00340000
#028370:00000000005400000000000000000000
#028340:0034
#028380:00000000000000000054000000000000
#028350:00000024
#0283b1:00000013
#028381:000000000000000000000000000000000000005300000023
#028320:000000000013
#028350:000000000000000000000000000000000000000000530023
#0293b0:13230000
#029370:0033000000000000
#029321:0013002300000000
#029361:00330000
#029370:0000001300230000
#0293b0:0033
#029361:00001323
#029321:0000000000330000
#0293b0:0000000000001323
#029370:00000000000000000000000000530000
#029321:0000000000000013
#029361:00000000000000000000000000000053
#030321:33000022
#030370:13
#030390:003300000000000000000000000000000000000000000000000000000000000000000000000000000000000000000000
#0303b0:003300000000000000000000000000000000000000000000
#0303c0:00000022
#030360:000000000000000000000000000000000000000000123232
#031320:32
#031340:0000000000520000
#033320:22
#031381:12
#0313a1:00320000000000000000000000000000
#0313c1:0032000000000000
#031361:0000000000340000
#0333c1:22
