This file was generated by Ched 2.7.0.0.
#TITLE ""
#ARTIST ""
#DESIGNER ""
#DIFFICULTY 0
#PLAYLEVEL
#SONGID ""
#WAVE ""
#WAVEOFFSET 0
#JACKET ""
#REQUEST "ticks_per_beat 480"
#00002: 4
#BPM01: 90
#00008: 01
#TIL00: ""
#HISPEED 00
#MEASUREHS 00
#00414:00140000
#00418:0014
#00412:00000014
#0041a:14
#0051a:14
#00514:00140000
#00618:00140000
#00614:0014
#0061a:00000014
#00612:14
#00610:41
#00712:14
#00718:00140000
#0081a:14000014
#00814:0014
#00912:14000014
#00918:0014
#01212:00140000
#01218:0014
#01214:00000014
#0121a:24
#0131a:14
#01312:00140000
#01318:0014
#01314:00000014
#0141a:14
#01414:00140000
#01418:0014
#01412:00000014
#01410:41
#01518:14
#01514:00140000
#0151a:0014
#01512:00000014
#01918:00000014
#01914:14
#02014:00000014
#02018:14
#02112:00160016
#02118:2626
#0211f:21
#02110:0041
#02312:14
#02318:00140000
#02314:0014
#0231a:00000014
#02412:14
#02418:00140000
#02414:0014
#0241a:00000014
#02518:00160016
#02512:2626
#02510:0041
#0291a:14
#02912:00140000
#02918:0014
#02914:00000014
#0301a:14
#03018:0000001400000000
#03112:14343400000000000000000000000000
#03114:00000000001400000000000000000000
#0161f:11
#0161a:00343400
#00213:0034
#00210:41
#00312:34
#00019:0034
#0011a:34
#01712:00343400
#01818:00343400
#01010:41
#0085a:14
#0125a:14
#01752:00000014
#0165a:00000014
#01858:00000014
#02058:54
#01954:54
#02158:1616
#02552:1616
#0305a:54
#03058:0000002400000000
#03152:64
#03154:00000000002400000000000000000000
#000380:14
#000390:0034
#0013a0:3424
#002340:14
#002330:0034
#003320:3424
#005380:00001424
#007340:00001424
#0103a0:14
#010390:00340000
#010380:0024
#011320:14
#011330:00340000
#011340:0024
#016380:14
#0163a0:00343424
#017340:14
#017320:00343424
#0183a0:14
#018380:00343424
#019340:14
#019320:0024
#020380:14
#0203a0:0024
#022380:1424
#022390:0034003400000000
#0223a0:00340000
#026340:1424
#026330:0034003400000000
#026320:00340000
#027370:1535
#027390:00350025
#028340:1535
#028320:00350025
#0303a0:14000024
#030380:0000005400000000
#031320:14343400000000000000340000000000
#031340:00000000005400000000000000000000
#033340:24
