This file was generated by Ched 2.6.4.0.
#TITLE ""
#ARTIST ""
#DESIGNER ""
#DIFFICULTY 0
#PLAYLEVEL
#SONGID ""
#WAVE ""
#WAVEOFFSET 0
#JACKET ""
#REQUEST "ticks_per_beat 480"
#00002: 4
#BPM01: 140
#00008: 01
#TIL00: ""
#HISPEED 00
#MEASUREHS 00
#0021a:14
#00210:41
#00314:14
#04618:14
#00612:14
#00718:14
#01018:14
#01010:41
#01118:14
#01212:14
#01312:14
#0141a:14
#0151a:14
#01818:14
#01812:0014
#01810:41
#01918:14
#02012:14
#02018:0014
#02112:14
#0221a:14
#02214:0014
#0231a:14
#01614:14
#01714:14
#02414:14
#0241a:0014
#02514:14
#02510:41
#03618:2616
#0361f:21
#03712:1616
#03710:41
#04012:1616
#04118:1616
#04318:16
#04312:0016
#0441a:14
#04410:41
#04512:14
#04714:14
#0481a:14
#04912:14
#05018:14
#0261f:11
#03912:26
#03918:0026
#0043a0:14
#0053a0:24
#008320:14
#009320:24
#026380:1434
#027380:24
#028320:1434
#029320:24
#0303a0:1434
#0313a0:24
#032340:14
#032330:0034
#033320:34
#034320:24
#038380:1626
#042320:1626
#051340:1400340034000024
