This file was generated by Ched 2.6.4.0.
#TITLE ""
#ARTIST ""
#DESIGNER ""
#DIFFICULTY 0
#PLAYLEVEL
#SONGID ""
#WAVE ""
#WAVEOFFSET 0
#JACKET ""
#REQUEST "ticks_per_beat 480"
#00002: 4
#BPM01: 140
#00008: 01
#TIL00: ""
#HISPEED 00
#MEASUREHS 00
#00118:0000000000000013
#00115:00000000000000000000000000000013
#00215:0000001313000000
#00218:00000000000000130000000000000000
#0021b:00000013
#00210:41
#00312:13
#00315:0013001313000000
#00318:00000000000000130000000000000000
#00415:0000001300000013
#00418:00000000000000130000000000000000
#0041b:00000013
#00412:0013
#0051b:13
#00618:0000001313000013
#00615:00000000000000130000000013000000
#01018:0013000000130000
#01015:00130013
#01012:2300001300000000
#0101b:2300000013000013
#01010:41
#01116:13
#01119:0013000000000000
#01114:00130000
#01117:0000001300000000
#01118:00000013
#01115:0000000000000013
#01112:0013
#0111b:0013
#01215:0013000000130000
#01218:00130013
#0121b:1300001300000000
#01212:1300000013000013
#01317:13
#01314:0013000000000000
#01319:00130000
#01316:0000001300000000
#01315:00000013
#01318:0000000000000013
#0131b:0013
#01312:0013
#0161b:1313
#01612:1313
#01615:0013001300001300
#01618:0000130000130013
#0171b:13132300
#01718:0000001300000000
#01715:0013
#01712:23000013
#01916:0013000000000000
#01914:0000001300000000
#01912:00000013
#01917:0000000023000013
#0191b:23
#01919:00230000
#0201b:1300001300000013
#02012:13131300
#02015:0013000000130000
#02018:00131313
#02318:0013000000001300
#02315:1300000000000013
#02312:00130000
#0231b:00130000
#02313:0033000000000000
#0241b:1313
#02412:1313
#02418:0013001300001300
#02415:0000130000130013
#0251b:13
#02515:00000000130000001300000000000033
#02518:00001300000013000000003300000000
#02512:13
#0251a:00000000000000000033000000000000
#02519:0000000000330000
#02513:00000000000000000000000000330000
#02514:0000000000000033
#02510:41
#01815:00231323
#0181b:23132300
#01812:1300002300000023
#01818:0023000000230000
#01810:41
#02112:13
#02117:0013000000000000
#02114:00130000
#02119:0000001300000000
#0211b:00000013
#02116:0000000013000013
#02615:0013001300001300
#02618:0000130000130013
#02612:00131300
#0261b:23001313
#0261f:11
#0271b:00130013
#02715:0000001300000013
#02718:1313
#02818:13131313
#0281b:0013000000130000
#02815:0000001300000013
#02812:23131300
#02915:00000013
#02918:0000000000000013
#02912:13
#03012:2313000013130000
#0301b:2300131300001313
#03015:00130013
#03018:0013
#03115:0013001300001300
#03118:2300130000000013
#0311b:0013
#03112:2313
#03216:0014000000140000
#03212:23132300
#03218:0000130000000014
#03214:0000001400000000
#03215:00000013
#0321b:23002313
#03518:0013000000000000
#03515:00000013000000000000000000000000
#03615:0013000000000000
#03617:0000130000000013
#03612:00130023
#03619:0000001300000000
#03616:0013
#0361b:23
#03614:0000000000230000
#0361f:21
#03712:13
#0371b:13130023
#03718:0013000000000000
#03716:00130000
#03714:0000001300000000
#03717:0013
#03719:0000000000230000
#03710:41
#03812:1300001300000000
#03817:0013
#03814:0000000000130000
#03819:00000013
#03816:0000000000000013
#0381b:13
#0401b:1313
#04016:0013000000000000
#04018:00130000
#04015:0000001300000000
#04012:00131313
#04019:0000000000130013
#04017:00000013
#0411b:13000013
#04117:00130000
#04116:1313
#0421b:0000001300001300
#04215:0000000000000013
#04212:1313
#04217:00130000
#04216:0013000000130000
#04318:1300130000230013
#0431b:0013000013000000
#04312:13131300
#04315:00000000000013000000000023000013
#0441b:00000000000000130000000023000000
#04416:00000013
#04412:00231300
#04415:0000002300000000
#04410:41
#04618:00000000000000130000000000000000
#04615:2300230000000013
#04612:0000002313000000
#04616:0000000000130000
#0461b:00000023
#0471a:14000014
#04718:00000000140000001400000000000023
#04715:0000002300000023
#04712:0023000000230000
#04815:0000000000000013
#0481b:00231300
#04817:0000000000130000
#04812:00000000000000130000000023000000
#04818:0000002300000000
#0491b:13131300
#04918:0013001300000000
#04912:1300002300002323
#04915:00231300
#04917:00000013
#0221b:13
#02218:0013130000131300
#02215:1300001313000013
#0221a:0000003300000033
#02213:0033000000330000
#03916:13
#03917:0013
#0391b:13
#05112:1300130013000013
#05118:1300002300000000
#0511b:00131300
#05115:0023000000232300
#05015:00000000000000130000000000002300
#0501b:0000002313000013
#05017:0000000000130000
#05018:00230000
#05012:00000023
#00818:0000001300000013
#00815:00000000000000130000000000000000
#00812:00000013
#0081b:0013
#0091b:13130000
#00912:13130000
#00915:0013000000000000
#00918:0000001300000000
#0071b:0000001300000000
#00712:0013000000000000
#00718:0013
#04515:0000001300000023
#04518:00000000000000130000000000000023
#04512:00231300
#0451b:00000023
#01512:00130000
#01515:0000001300001300
#01518:0000000013000013
#0151b:13
#01412:13130013
#0141b:1313
#0331b:23
#03312:23
#03313:00330000000000000000000000330000
#03319:0000000000000033
#03318:00000000000000000000000000330000
#03314:0033000000000033
#03315:00000033000000000000000000000000
#03316:00000000333333330000000000000000
#0055b:13
#00552:00130000
#00558:0013
#00555:00000013
#0365b:13
#03956:13
#03957:00135300
#03952:0013
#0395b:63000013
#03752:13
#0405b:13
#04052:0013
#0415b:13001363
#04152:00130013
#04157:00530000
#04156:6363
#00355:0063
#0385b:63
#04252:5353
#04257:00530000
#0425b:0000002300000000
#04256:0023000000230000
#04456:00000063
#04452:0053
#04652:0053
#04656:0000000000230000
#00255:0063
#0025b:00000063
#00452:0053
#00658:0053
#0515b:0063
#01152:0013
#0135b:0013
#02156:0013
#02255:6363
#02258:00530053
#02355:6313
#02352:00530000
#0235b:00630000
#02358:0013
#03352:53
#01957:0013
#0485b:0063
#04857:0000000000230000
#0495b:0063
#04957:00000023
#0505b:0063
#05057:0000000000230000
#0085b:0063
#0095b:00000013
#00952:00000013
#04552:0053
#00758:0053
#0315b:0013
#01558:0013
#0155b:63
#0145b:6363
#01452:00530053
#0023b0:13
#0023a0:0033000000000000
#002390:00330000
#002380:0000002300000000
#002350:0013
#002320:00000023
#0023b1:00000013
#003381:23
#003381:0000132300000000
#003351:0013
#004321:23
#004380:13
#004390:0033000000000000
#0043a0:00330000
#0043b0:0000002300000000
#004320:0013
#004350:00000023
#005320:13230000
#005381:00132300
#005350:00001323
#0053b1:00000013
#0063b1:23
#006320:13
#006330:0033000000000000
#006340:00330000
#006350:0000002300000000
#006380:0013
#0063b0:00000023
#007380:1333230000000000
#007351:0000133323000000
#007380:0013
#0083b0:23
#008351:13
#008341:0033000000000000
#008331:00330000
#008321:0000002300000000
#0083b1:0013
#008381:00000023
#0093b1:00001323
#009320:00001323
#0143b0:13
#014380:00230000
#014321:00130000
#014351:0023
#0143b0:0013
#014380:00000023
#014321:00000013
#015351:23
#0153b0:13
#015380:00230000
#017320:13
#017350:00230000
#0173b0:0013
#017380:00000023
#022350:13
#022330:0033000000000000
#022320:00230000
#022381:00130000
#0223a1:0000003300000000
#0223b1:0023
#022350:0013
#022330:0000000000330000
#022320:00000023
#022381:00000013
#0223a1:0000000000000033
#0233b1:23
#023350:1323
#023330:0033000000000000
#023320:00330000
#0233b1:00130000
#023381:0023
#0253b1:0013
#0253a1:00000000000000000033000000000000
#025391:0000000000330000
#025381:00000000000000000000003323000000
#025320:00000013
#025330:00000000000000000000000000330000
#025340:0000000000000033
#025350:00000000000000000000000000000033
#026350:23
#027320:13
#027350:00230000
#027350:0013
#027320:00000023
#0293b0:13
#029380:0023000000000000
#029321:0013000000000000
#029351:00230000
#029380:00130000
#0293b0:0000002300000000
#029351:0000001300000000
#029321:0023
#0293b0:0013
#029380:00000023
#033320:13
#033330:00330000000000000000000000000000
#033340:0033000000000000
#033350:00000033000000000000000000000000
#033360:00000000333333332300000000000000
#0333b1:00000000000000001300000000000023
#0333a1:00000000000000000033000000000000
#033391:0000000000330033
#033381:00000000000000000000003300330000
#033371:00000033
#033320:00000013
#033330:00000000000000000000000000330000
#033340:0000000000000033
#033360:00000000000000000000000000000023
#0353b0:0000132300000000
#035361:0000001323000000
#035390:0000000013230000
#035341:0000000000132300
#035370:0000000000001323
#035321:0000000000000013
#036321:23
#0363b1:0013
#036371:00000023
#037321:0013
#037361:00000023
#0383b1:13
#038371:0000002300000000
#0393b1:13
#039371:00230000
#039320:00132300
#039371:0013
#0393b1:00000023
#039360:00000013
#040360:23
#041360:13
#041320:00230000
#041371:00130000
#0413b1:0023
#041360:0013
#041320:00000023
#0413b1:00000013
#042371:23
#042320:13230000
#042360:0053000000000000
#042371:00132300
#0423b1:0000005300000000
#042320:00001323
#042360:0000000000530000
#044380:13
#044390:0033000000000000
#0443a0:00330000
#0443b0:0000002300000000
#044320:0013
#044360:00000033
#045320:23
#0453b1:13
#045391:0033000000000000
#045371:00230000
#045321:0013
#045361:00000023
#0463b1:13
#0463a1:0033000000000000
#046391:00330000
#046381:0000002300000000
#046321:00001323
#046361:0000000000530000
#048351:13
#048341:0033000000000000
#048331:00330000
#048321:0000002300000000
#0483b1:00001323
#048371:0000000000530000
#0493b1:0013
#049371:00000053
#0503b1:23
#050320:13
#050330:0033000000000000
#050340:00330000
#050350:0000002300000000
#0503b0:00001323
#050370:0000000000530000
#0513b0:0013
#051380:0000000000000023
