This file was generated by Ched 2.6.4.0.
#TITLE ""
#ARTIST ""
#DESIGNER ""
#DIFFICULTY 0
#PLAYLEVEL
#SONGID ""
#WAVE ""
#WAVEOFFSET 0
#JACKET ""
#REQUEST "ticks_per_beat 480"
#00002: 4
#BPM01: 140
#00008: 01
#TIL00: ""
#HISPEED 00
#MEASUREHS 00
#00118:0000000000000013
#00315:13131300
#00318:0013001300000000
#00418:0000000000000013
#00412:0013
#01017:0013000000000000
#01012:23130000
#01019:0000001300000000
#01014:0013
#0101b:0000000000130013
#01016:00000013
#01010:41
#01114:13
#01119:0013000000000000
#01112:0000130013000013
#01117:0000001300001300
#01316:0000001300001300
#0131b:0000130013000013
#01319:13
#01314:0013000000000000
#0121b:13130000
#01216:0013000000000000
#01214:0000001300000000
#01219:0013
#01212:0000000000130013
#01217:00000013
#01515:0000130013000013
#01518:0000001300001300
#0161b:1313
#01612:0013000000130000
#01618:00130013
#01615:0000001300000013
#02318:0013000000001300
#02315:1300000000000013
#02312:00130000
#02115:0013000000001300
#02118:0000130000000013
#0211b:1313
#02112:0000001300000000
#02715:0000001300000013
#03015:0013000000000013
#03018:00130013
#03012:2300001300130000
#0301b:2313
#03618:0013000000000013
#03615:00130000
#0361b:2300001300000000
#03612:23
#0361f:21
#0371b:13
#03712:1300001300000000
#03715:0013000000000000
#03718:00130000
#03710:41
#03817:0013
#03814:0000000000130000
#03819:00000013
#03816:0000000000000013
#03815:13
#04015:0013001300001300
#0401b:1313
#04018:0000130000130013
#04012:1313
#04218:0000000000000013
#04212:1313
#04216:00130000
#03912:0013
#0391b:13
#0021b:0013
#00210:41
#01412:13
#01415:00130000
#01418:00000013
#00512:13
#00518:00130000
#00515:0013
#0051b:00000013
#00718:13131300
#00715:0013001300000000
#00815:0000000000000013
#0081b:0013
#00615:0000000000000013
#00618:0013
#0091b:13
#00912:0013000000000000
#00918:00130000
#00915:0000001300000000
#01715:0000001300000000
#0171b:23
#01718:0023
#01918:0013000000001300
#0191b:0000001300000000
#01915:0000230000000013
#01912:2323
#02012:0000001300000013
#0201b:1313
#02015:0013000000130000
#02018:00130013
#02514:0000001300000000
#02519:00130000
#02516:0013000000000000
#0251b:13
#02510:41
#02412:0000001300000013
#02415:00130013
#02418:0013000000130000
#0241b:1313
#02618:0000130000130000
#02612:2300000000000013
#02615:0013001300001300
#0261b:2313
#0261f:11
#0351b:0000001300000000
#03516:0013
#03519:0000000000130000
#03514:00000013
#03517:0000000000000013
#03515:0013130000000000
#03518:00000013000000000000000000000000
#0411b:0013
#04112:13
#03118:0013001300001300
#03115:0000130013000013
#03112:23
#0311b:23
#04312:13
#0431b:13
#04315:0013001300000013
#04318:00000000130000000000000000000013
#04415:00000000000000130000000000000000
#04418:0000001313000000
#04410:41
#04818:00000000000000130000000000001300
#04812:0013
#04815:0000001300000000
#0481a:0033000000000000
#04914:00130000
#04917:0013000000000000
#04912:13
#04919:0000001300000000
#04916:0013
#0491b:13
#05112:13
#0511b:1313
#05115:0013001300000000
#05118:00130000
#05018:00000000000000130000000000001300
#05012:0000001300000000
#05015:0013
#05019:0033000000000000
#04515:00000000000000130000000000000000
#04518:0000001300000000
#0451b:0013
#04615:00000000000000130000000000001300
#04618:0000001313000000
#04712:0013
#0471b:13
#04715:13
#04718:0013
#02818:0013001300001300
#02815:0000130000130000
#02812:2313
#0281b:2300000000000013
#02912:13
#0291b:0013000000000000
#02914:00130000
#02919:0000001300000000
#03218:0013000000000013
#03215:00130013
#0321b:2300001300130000
#03212:2323
#03312:23
#01812:2323
#0181b:0000002300000023
#01815:00230023
#01818:0023000000230000
#01810:41
#03957:00130000
#03956:00000013
#03952:0053
#0395b:63
#00355:0063
#0025b:0063
#01152:0013
#01555:0013
#01452:53
#01455:00630000
#01458:00000053
#03352:53
#00552:13
#00558:00130000
#00555:0013
#0055b:00000013
#00758:0053
#0085b:0063
#00658:0053
#0095b:00000013
#0135b:0013
#01952:0013
#0215b:0013
#02352:00530000
#02355:0013
#03855:63
#0415b:0063
#04152:53
#04156:00130000
#04157:00000013
#04252:5353
#04256:00630000
#0515b:0063
#04458:0053
#0455b:0063
#04658:0053
#04752:0053
#0475b:63
#04755:63
#04758:0053
#04852:0053
#04956:0063
#05055:0063
#00452:0053
#002350:1333332300000000
#0023b0:0013
#002380:00000023
#003350:0013
#003320:00000023
#004380:1333332300000000
#004320:0013
#004350:00000023
#006320:1333332300000000
#006380:0013
#0063b0:00000023
#007380:0013
#0073b0:00000023
#008350:1333332300000000
#0083b0:0013
#008380:00000023
#0093b0:00001323
#014320:1323
#014350:00330000
#014380:00000013
#0153b0:23
#0173b0:13
#017380:00230000
#017380:0013
#0173b0:00000023
#022320:1300002300000000
#022350:0033330000000000
#0223b0:0000000013000023
#022380:0000000000333300
#023320:00130000
#023350:0023
#025370:00001323
#027380:13
#0273b0:00230000
#0273b0:0013
#027380:00000023
#029360:00001323
#033320:13
#033350:00230000
#0333b0:00000000000000001300000000000023
#0333a0:00000000000000000033000000003300
#033390:00000000000000000000330000330000
#033380:00000000000000000000003333000000
#036350:0013
#036320:00000023
#037380:0013
#0373b0:00000023
#038350:13
#038320:0000002300000000
#0393b0:13
#039370:00230000
#039320:0013
#039360:00000023
#041320:13
#041360:00230000
#0413b0:0013
#041370:00000023
#042320:1333
#042360:00330023
#0433b0:0013
#043370:00000023
#044350:1333230000000000
#044380:0013
#0443b0:00000023
#045320:1333230000000000
#0453b0:0013
#045380:00000023
#046350:1333230000000000
#046380:0013
#0463b0:00000023
#0473b0:13
#047380:00230000
#047351:13
#047321:00230000
#047321:0013
#047351:00000023
#047380:0013
#0473b0:00000023
#048380:13
#0483a0:0033000000000000
#0483b0:00230000
#048320:0013
#048350:00000023
#049360:0013
#049320:00000023
#0503b0:13
#050390:0033000000000000
#050380:00230000
#050350:0013
#050320:00000023
#0513b0:0013
#051380:0000000000000023
