This file was generated by Ched 2.6.4.0.
#TITLE ""
#ARTIST ""
#DESIGNER ""
#DIFFICULTY 0
#PLAYLEVEL
#SONGID ""
#WAVE ""
#WAVEOFFSET 0
#JACKET ""
#REQUEST "ticks_per_beat 480"
#00002: 4
#BPM01: 140
#00008: 01
#TIL00: ""
#HISPEED 00
#MEASUREHS 00
#00118:0000000000000013
#00113:00000000000000000000000000000013
#00216:1300001313000000
#0021b:00000000000000130000000013000000
#00212:0013130000130013
#00217:0000000000130013
#00210:41
#00317:0013130013001300
#0031b:0000001300001300
#00314:00000000000000130000000000000000
#00312:0013
#00319:0000000000130013
#00412:0000001313000000
#00417:00000000000000130000000013000000
#0041a:0000000013130000
#00414:0000000000000013
#00416:0013130000130000
#00419:0000000000000013
#0051b:13
#00519:0013000000000000
#00514:0000001300000000
#00518:0000000000130000
#00515:0000000000000013
#00516:1313
#00517:00130013
#00615:0000000000000013
#00617:0000001313000000
#00612:00000000000000130000000013000000
#0061b:0013130000130000
#00616:0000000000130000
#00819:0000000000000013
#0081b:0000001313000000
#00816:00000000000000130000000013000000
#00813:0000000013130000
#00817:0013130000130000
#00814:0000000000000013
#00912:13
#00917:13
#00919:0013001300000000
#00916:0000130000000014
#00914:0013001300000000
#0091b:00130000
#01018:0013000000000000
#01016:00001313
#01015:00000013000000000000000000000000
#01017:0000001300000013
#01012:2300000000130013
#0101b:23130000
#01010:41
#01112:0013130013000000
#0111b:13000013000013000000000013000000
#01115:0000000000000013
#01116:1300001300130000
#01117:00131300
#0121b:1300000000130013
#01212:13130000
#01215:0013000000000000
#01217:00001313
#01218:00000013000000000000000000000000
#01216:0000001300000013
#01419:0000000000000013
#0141b:13130000
#01412:13
#01417:0013
#01416:00130013
#01519:0000001300000000
#01516:00130013
#01512:0000000000000013
#01514:0013000000130000
#01517:1313
#0151b:0000000000000013
#01712:00230013
#01714:0013001300000000
#01718:0000000000130013
#01715:00000000000000000000001300000000
#0171b:13000013
#01717:00130000
#01719:0013001300000000
#01716:2323
#0201b:1300000000130000
#02012:1300130000000013
#02015:0013000000000000
#02017:0013
#0201a:00000013000000000000000000000000
#02016:0000001300001300
#02719:00130000
#02712:0000001300130000
#02715:0000000000000013
#02717:13000000000013000000001300000000
#0271b:0013000000000013
#02716:00000013000000001300000000000000
#02714:00000013
#0291b:13
#02912:13000013
#02914:0000000000000013
#02917:00000013
#0301b:00130013
#03016:23140014
#03012:0014
#03014:0000001400140000
#03018:0014000000000014
#03017:0013
#0301a:24
#03516:0013130000001300
#0351b:00000013000000001300000000000000
#03512:0000001300000013
#03517:0000000000130000
#03617:0013001300130000
#03616:00001323
#03614:0000000000000013
#0361b:23131300
#03612:0000001300230000
#03619:0000000000000013
#0361f:21
#03816:13000013000000001300000000000000
#03812:0000001300001300
#0381b:1313
#03814:0000000000130013
#03819:0000000000130013
#03817:00000013
#04015:0013160016131600
#04018:0000001300000013
#0401b:0013
#04012:13130013
#04318:1600160012000013
#04315:00000000000000000000000000000013
#04312:1616001600002300
#0431b:0000000000230000
#04415:00000000000000130000000000000000
#04412:13001323
#0441b:00231313
#04417:0000000000130013
#04418:0000002300000000
#04410:41
#04517:00000000000000130000000000000000
#04512:0000001313000000
#0451b:00001323
#04518:00000000000000000000000000000023
#04515:0000000000000023
#04516:00230000
#04613:00000000000000130000000000000000
#04612:2300230000130013
#0461b:00001323
#04617:0000000000000013
#04616:0013
#04618:0000002300000000
#0491b:0013
#04916:1313
#04914:0013000000000000
#04912:0000232300000023
#04915:00000023
#00716:0013130013001300
#00712:1300001300001300
#0071b:0013
#00714:0000000000130013
#0131b:0013130013000000
#01312:13000013000013000000000013000000
#01318:0000000000000013
#01317:1300001300130000
#01316:00131300
#01616:1300001300000013
#01614:0013000013001300
#01612:0000130000130000
#0161b:1313
#01617:00130013
#01619:000000000000000000000000000000000000000000000000000000000000000000000013000000000000000000000000000000000000000000000000130000000000000000000000000000000000000000000013000000000000000000000000
#01914:0013000000000013
#01918:00000013000000000000000000000000
#01917:0000001300000000
#01912:2300001300130000
#0191b:23232313
#01916:00231300
#01813:00000013000000000000000000000000
#0181b:2300230000000023
#01812:2300000000230000
#01818:0023000000000000
#01816:0023
#01817:0000002300002300
#01810:41
#02117:00131300
#02112:13131313
#02119:0013000000000013
#02115:00000013000000000000000000000000
#02116:0000001300000000
#0211b:1300001300130000
#0221b:0000000000130013
#02216:13130000
#02212:0013001300000000
#02217:00001313
#02314:0000001300000000
#02317:00130013
#0231b:1300000000000013
#02319:0013000000130000
#02316:1313
#02312:0000000000000013
#02515:00000000000000000013000000000000
#02518:0000000000130000
#02512:13000000000000000000001300000000
#02517:13000013
#02514:00001300000013000000000000130000
#02519:0013001300000013
#02516:00000000130000000000000000000013
#0251b:00131300
#02510:41
#02419:0013000013001300
#0241b:0000130000130000
#02417:1300001300000013
#02412:1313
#02416:00130013
#02414:000000000000000000000000000000000000000000000000000000000000000000000013000000000000000000000000000000000000000000000000130000000000000000000000000000000000000000000013000000000000000000000000
#03315:0013001300000000
#03312:0000130000141400
#03316:00000000000000001400001400001400
#0331b:00130000000000130000000000000000
#03318:23000013001300000000000000000000
#0331a:00000000000000000014000000140014
#03716:0013001300130000
#03717:00001323
#03719:0000000000000013
#03712:13131300
#0371b:0000001300230000
#03714:0000000000000013
#03710:41
#03917:0013001300130013
#0391b:13130013
#03912:0013001300130013
#03916:1313
#03112:0014001400000000
#03117:0013001300000000
#0311a:24141400
#03116:23131313
#03114:0000000000000013
#03212:2313000000130000
#0321b:0000001300000013
#04818:00000000000000130000000000001300
#04812:0000230013000013
#04816:0000000000130000
#0481b:13001323
#04815:0000002300000000
#05016:0000000000000013
#0501a:00000000000000130000000000000000
#05012:00001323
#05017:0013
#0501b:0000230000130023
#05015:0000002300000000
#0511b:1313
#05112:00130000
#05117:0000000000000013
#05116:0013
#05115:0000002300000000
#05118:0023000000000000
#05119:0000000000232300
#0281b:0000000000000013
#02815:0013000000000000
#02812:23
#02818:23
#0411b:1313001300130013
#04117:00130013
#04116:0013001300130013
#04112:1313
#04212:0000000000000013
#0421b:00000013
#04218:0013000000000000
#04214:0000001300000000
#04217:0000000000000013
#02616:0014140014000014
#0261a:0000001400001400
#02612:2400000000140000
#0261f:11
#04718:00000000000000000000000000000023
#04715:0000000000000023
#04716:0000002300000000
#04712:0023000000230000
#0295b:63
#02952:53
#02954:0034
#02958:0044
#0055b:1313
#00552:00130013
#00556:6363
#00557:00530053
#0365b:1363
#03657:0000000000230000
#0385b:63
#03856:00000023000000000000000000000000
#0495b:0063
#00256:0063
#00252:0000000000230000
#0025b:00000063
#00257:0000000000000023
#00352:0053
#00357:00000023
#00452:0053
#00456:0000000000230000
#00657:0053
#0065b:0000000000230000
#0075b:0063
#00756:00000023
#0085b:0063
#00857:0000000000230000
#01152:0053
#01156:0000000000230000
#01157:0013
#0135b:0063
#01357:0000000000230000
#01356:0013
#01452:53
#0145b:00630013
#01457:0053
#01456:00630063
#01557:5353
#01556:00630000
#01552:1313
#0155b:00130000
#01956:0063
#01952:0000000000230000
#0195b:0043
#02157:0053
#0215b:0000000000230000
#02152:0033
#02356:6363
#02357:00530000
#0235b:1313
#02352:00130000
#01757:00230000
#01759:0053005300000000
#0175b:23
#0165b:5323
#01657:00230023
#01659:000000000000000000000000000000000000000000000000000000000000000000000053000000000000000000000000000000000000000000000000530000000000000000000000000000000000000000000053000000000000000000000000
#02757:43
#02756:0033
#03752:1353
#03756:0000000000230000
#0405b:4343
#04052:00330033
#0395b:43634363
#03957:0000002300000023
#03952:0023000000230000
#03956:63436343
#04358:56660000
#04352:0066005600000000
#00957:0000000000430000
#00952:00000033
#0445b:00006363
#04457:0000000000230023
#05156:0063
#0415b:4300002300000023
#04157:00533353
#04156:0023000000230000
#04152:53335333
#02556:00230000
#02554:0063006300000000
#02552:23
#02452:6323
#02456:00230023
#02454:000000000000000000000000000000000000000000000000000000000000000000000063000000000000000000000000000000000000000000000000630000000000000000000000000000000000000000000063000000000000000000000000
#03156:0063
#04552:0053
#04852:0053
#04856:0000000000230000
#04656:0063
#04652:0000000000230000
#05057:0053
#0505b:0000000000230000
#0023b0:1300002300000000
#002370:0033330000000000
#002360:00001323
#002320:0000000000530000
#0023b1:00000013
#002371:0000000000000053
#0033b1:23
#003360:1300002300000000
#003320:0033330000000000
#003320:0013
#003370:00000053
#004320:23
#004371:1300002300000000
#0043b1:0033330000000000
#004321:00001323
#004361:0000000000530000
#005361:13
#005321:00230000
#005370:00130000
#0053b0:0023
#005361:0013
#005321:00000023
#005370:00000013
#0063b0:23
#006321:1300002300000000
#006361:0033330000000000
#006371:00001323
#0063b1:0000000000530000
#007371:1300002300000000
#0073b1:0033330000000000
#0073b1:0013
#007361:00000053
#0083b1:23
#008360:1300002300000000
#008320:0033330000000000
#0083b0:00001323
#008370:0000000000530000
#009320:00001323
#009371:0000000013230000
#010320:0000132300000000
#0103b0:00001323
#010370:0000000000530000
#011320:00001323
#011360:0000000000530000
#0123b0:0000132300000000
#012320:00001323
#012360:0000000000530000
#0133b0:00001323
#013370:0000000000530000
#014320:1323
#014360:00330000
#0143b1:00130023
#014371:0033
#014360:00000013
#015320:23
#015371:13
#0153b1:00230000
#015360:00130000
#015320:0023
#015371:0013
#0153b1:00000023
#0163b1:1353
#016371:00530053
#016391:000000000000000000000000000000000000000000000000000000000000000000000053000000000000000000000000000000000000000000000000530000000000000000000000000000000000000000000053000000000000000000000000
#0173b1:5323
#017391:0053005300000000
#017371:00530000
#018361:00130000
#018321:0000002300000000
#0183b1:0013
#018371:0000000000230000
#018321:00000013
#018361:0000000000000023
#019361:00001323
#019321:0000000000530000
#020371:00130000
#0203b1:0000002300000000
#020321:0013
#020361:0000000000230000
#0203b1:00000013
#020371:0000000000000023
#021371:00001323
#0213b1:0000000000530000
#0223b1:13530000
#022371:0053002300000000
#022321:00001353
#022361:0000000000530023
#023361:13
#023321:00230000
#023370:00130000
#0233b0:0023
#023361:0013
#023321:00000023
#024321:1353
#024361:00530053
#024341:000000000000000000000000000000000000000000000000000000000000000000000053000000000000000000000000000000000000000000000000530000000000000000000000000000000000000000000053000000000000000000000000
#025321:5323
#025341:0053005300000000
#025361:00530000
#0263a1:1424000000000000
#026321:0000142400000000
#0263a1:0000000014240000
#026321:0000000000001424
#027321:13
#027361:0023000000000000
#0273b1:0013
#027371:0000000000230000
#0283b1:0013000000000000
#028381:0000332300000000
#028320:00130000
#028350:0000003323000000
#028381:0013
#0283b1:0000000000332300
#028350:0000000000130000
#028320:0000000000003323
#0293b0:13
#029350:0033003300000000
#029380:00322400
#029321:13
#029381:0033003300000000
#029361:00320000
#029341:0024
#031361:0013
#031321:00000023
#032371:13
#0323b1:0033000000000000
#032391:00230000
#032360:00130000
#032320:0000003300000000
#032340:0023
#032371:0013
#0323b1:0000000000330000
#032391:00000023
#032360:00000013
#032320:0000000000000033
#033350:23
#0353b0:00130000
#035370:0000002300000000
#035360:0013
#035320:0000000000230000
#0353b0:00000013
#035370:0000000000000023
#036360:13230000
#036320:0053000000000000
#0363b0:00001323
#036370:0000000000530000
#037370:13230000
#0373b0:0053000000000000
#037320:00001323
#037360:0000000000530000
#0383b0:1300002300000000
#038360:00000053000000000000000000000000
#039360:13230000
#039320:0053000000000000
#0393b1:00132300
#039371:0000005300000000
#039360:00001323
#039320:0000000000530000
#0393b1:00000013
#039371:0000000000000053
#0403b1:23
#041321:13230000
#041361:0053000000000000
#041370:00132300
#0413b0:0000005300000000
#041321:00001323
#041361:0000000000530000
#041370:00000013
#0413b0:0000000000000053
#042370:23
#042321:13
#042361:00230000
#0423b0:00130000
#042370:0023
#042321:0013
#042361:00000023
#043381:16
#0433c1:0022000000000000
#043320:0016220000000000
#043381:0000162200000000
#043320:0000001600000000
#043360:0022
#0443b0:13
#044370:0023000000000000
#044321:0013002300000000
#044361:00330000
#0443b1:00001333
#044371:0000000000530053
#0453b1:23
#045360:13
#045320:0023000000000000
#045371:0013002300000000
#0453b1:00330000
#045321:0013
#045361:00000023
#0463b1:13230000
#046371:0033000000000000
#046361:00001323
#046321:0000000000530000
#0473b1:13
#047371:0023000000000000
#047371:00130000
#0473b1:0000002300000000
#0473b1:0013
#047371:0000000000230000
#047371:00000013
#0473b1:0000000000000023
#048321:13
#048361:0023000000000000
#0483b0:0013002300000000
#048370:00330000
#048320:00001323
#048360:0000000000530000
#0493b0:13
#049380:0033000000000000
#0493a0:00330000
#049370:0000002300000000
#0493b0:0013
#050370:23
#050321:13230000
#050361:0033000000000000
#050371:00001323
#0503b1:0000000000530000
#051321:13
#051351:0023000000000000
#0513b1:00130000
#051381:0000002300000000
#051361:0013
#051321:0000000000000023
