This file was generated by Ched 2.6.4.0.
#TITLE ""
#ARTIST ""
#DESIGNER ""
#DIFFICULTY 0
#PLAYLEVEL
#SONGID ""
#WAVE ""
#WAVEOFFSET 0
#JACKET ""
#REQUEST "ticks_per_beat 480"
#00002: 4
#BPM01: 140
#00008: 01
#TIL00: ""
#HISPEED 00
#MEASUREHS 00
#0021a:14140000
#00212:00001414
#00210:41
#01118:1414
#01114:00140000
#01212:14
#0121a:0014
#01314:1414
#01318:00140000
#04014:0014
#04012:14
#04018:00140000
#0401a:00000014
#04112:14
#04114:0014
#04118:00140000
#0041a:0014
#00414:14140000
#00412:00000014
#01012:0014
#0101a:24
#01010:41
#0151a:14
#01516:00140000
#01512:0014
#0271a:1414
#02714:00140000
#02812:14
#0281a:0014
#02912:16
#02913:00140000
#0321a:14
#03212:0014
#00318:1414
#00314:00140000
#0421a:14
#04214:00140000
#04218:0014
#04212:00000014
#04319:14141400
#04313:0014001400000000
#04412:14001414
#04418:00140000
#04410:41
#04614:0014
#04612:14
#04618:00140000
#0461a:00000014
#0451a:1414
#04514:00140000
#00612:14140000
#0061a:00001414
#00812:0014
#00818:14140000
#0081a:00000014
#00714:1414
#00718:00140000
#02212:1414
#0221a:00140014
#0241a:1414
#02412:00140014
#02612:14
#02618:00140000
#0261f:11
#03112:1414
#03118:00140000
#0301a:14
#03014:00140000
#0361a:2414
#03614:00140000
#0361f:21
#03712:14
#03714:00340000
#03710:41
#0381a:14
#0481a:14001414
#04814:00140000
#05018:0014
#0501a:14
#05014:00140000
#05012:00000014
#04912:1414
#04918:00140000
#02518:1414
#02514:00140000
#02510:41
#01712:14
#01716:00140000
#0171a:0014
#0201a:1414
#02014:00140014
#02314:1414
#02318:00140000
#03318:1414
#0331a:00140000
#03912:2626
#03918:00260026
#01812:2424
#01818:00240024
#01810:41
#01912:24
#00518:00343400
#04712:00343400
#00914:00343400
#0511a:0000343400000000
#05119:0034000000000000
#02952:56
#02953:00240000
#03752:54
#0385a:64
#02558:0014
#02354:0014
#03358:5454
#0335a:00540000
#005380:14343400
#0053a0:00000024
#009340:14343400
#009320:00000024
#0143a0:14240000
#014320:00001424
#016320:14240000
#0163a0:00001424
#019320:14
#019330:00340000
#019340:0024
#0213a0:14
#021390:00340000
#021380:0024
#026320:00001424
#029320:1626
#029330:00340000
#0303a0:00001424
#033380:1434
#0333a0:00340024
#037320:14
#037340:00342400
#0383a0:14
#038380:0024
#047340:14
#047320:00343424
#051380:14
#051390:0034000000000000
#0513a0:0000343434000024
