This file was generated by Ched 2.7.0.0.
#TITLE ""
#ARTIST ""
#DESIGNER ""
#DIFFICULTY 0
#PLAYLEVEL
#SONGID ""
#WAVE ""
#WAVEOFFSET 0
#JACKET ""
#REQUEST "ticks_per_beat 480"
#00002: 4
#BPM01: 120
#00008: 01
#TIL00: ""
#HISPEED 00
#MEASUREHS 00
#0101a:14
#0091a:14
#00914:0014
#00910:41
#01114:14
#0111a:0014
#01214:14
#01318:14
#01312:0014
#01418:14
#01512:14
#01518:0014
#01510:41
#01612:14
#0251a:14
#02514:0014
#0261a:14
#0291a:14
#02914:0014
#0291f:11
#0301a:14
#03112:14
#03118:0014
#02812:14
#02712:14
#02718:0014
#02710:41
#03412:0016
#03418:26
#0341f:21
#03518:1616
#03510:41
#03818:0016
#03812:26
#04018:16
#04012:0016
#03912:1616
#04118:1616
#04212:14
#0431a:14
#04414:14
#0011a:14
#0021a:14
#00314:14
#00310:41
#00414:14
#03212:14
#03214:0014
#02110:41
#03254:0024
#03252:54
#005380:14
#006380:24
#007320:14
#008320:24
#017380:1434
#018380:24
#019340:1434
#020340:24
#0213a0:1434
#0223a0:24
#023320:1434
#024320:24
#032320:14
#032340:0034
#033320:24
#036320:1626
#037380:1626
#045380:1400340034000024
