This file was generated by Ched 2.7.0.0.
#TITLE ""
#ARTIST ""
#DESIGNER ""
#DIFFICULTY 0
#PLAYLEVEL
#SONGID ""
#WAVE ""
#WAVEOFFSET 0
#JACKET ""
#REQUEST "ticks_per_beat 480"
#00002: 4
#BPM01: 120
#00008: 01
#TIL00: ""
#HISPEED 00
#MEASUREHS 00
#00015:0000000000000013
#00018:00000000000000000000000000000013
#00215:00000013
#00218:1300001300130013
#0021b:00000013000000001300000000000000
#00315:00000013000000000000000013000000
#00318:00000013000000002300000000001300
#00312:1313
#0031b:1300001300000000
#00310:41
#00712:1300001300000000
#0071b:0000000013000013
#00715:00000013000000000000000000000000
#00718:00000000000000000000001300000000
#00115:0000000013000013
#00118:0000001300000000
#0011b:00000013000000001300000000000000
#00112:13000000000000000000001300000000
#00116:00000013000000000000000000000000
#00117:00000000000000000000001300000000
#00812:13
#00818:13000000001300000000000000000000
#0081b:00000013000000130000000000001300
#00816:00000000000000130000000000000000
#00815:00000013000000000000000000000013
#00918:23000013000000000000001300000000
#00912:00000013000000000000001300000000
#0091b:0000001313000000
#00915:0000000013000013
#00910:41
#01012:13
#0101b:0000001313001300
#01018:1313000000000000
#01019:0000000000000013
#01117:13000013000000000000000000000000
#0111b:0000001300000000
#01115:00000013
#01118:0000000000000013
#01116:0000001300000000
#01112:13000013000000001300000000000000
#0121b:13001313
#01215:00000013001300000000000000000000
#01218:00001300000013000000000000000013
#01216:0013
#01212:1300000000000013
#0161b:13000023
#01618:00000013001300000000000000000000
#01615:0013001300000000
#01617:0013
#01612:23002323
#03018:00130013
#03015:00000013000000001300000000001300
#0301b:1313
#03012:1300001300001300
#03212:1300001313000000
#03218:13
#0321b:00000013000013001300000000000000
#03215:0013000000000000
#03318:0023002300000013
#03315:23000000000023000000000000000013
#03312:00000023000000000000000000000000
#0331b:23
#03418:2300001300000000
#0341b:00000013000000000000000000000000
#03412:00000000000000000000001300000000
#03415:0000000013000013
#0341f:21
#03518:1313001300000000
#03515:00000013001300000000000000000000
#03514:0000000000000013
#03519:0000000000000013
#03512:0013
#03516:00000013
#03510:41
#03615:0013000013000000
#03618:00000013000000001300000000000000
#03614:0000000000000013
#03619:0000000000000013
#03612:1300001300000000
#0361b:1300001300000000
#03715:0013001300130013
#03718:00000013001300000000130000000013
#0371b:1323
#03712:1323
#03919:0000000000000013
#03913:0000000000000013
#03918:0013000000000000
#03915:00000000001300000000000013000000
#03912:00000013000000002300000000000000
#0391b:2300001300000000
#03917:0023
#0411b:13000013000000130000000000000000
#04112:13000000001300000000000000000000
#04115:0013000000000012
#04118:00000000001300000000000000000000
#04119:00000000000000000000000000000012
#04116:00000000000000240000000000000000
#04214:00000012000000000000000000000000
#04215:0000001200000000
#0421a:00000000000000000000001200000000
#04219:0000000000000012
#0421b:0012
#04213:22
#04315:00000012000000000000000000000000
#04316:0000001200000000
#04319:0012000000001200
#04317:0000000000000012
#0431b:0012
#04314:12
#04415:12120000
#0441b:0000001200000000
#04419:00001212
#04513:12
#04515:00000012000012000000000000000000
#04519:0012000000000000
#0451b:12
#04517:00000000000000001212121212120000
#04516:0000000000000000000000000000000000140014001400140014001400000000
#00615:1300001300130013
#00618:00000013
#00612:00000013000000001300000000000000
#00418:00000013000000000000000013001300
#00412:1300001300000000
#0041b:1313
#00415:00000013000000002300000000000013
#02112:13001313
#02115:0000000000130013
#02118:00001313
#0211b:0000000000130013
#02116:00333300000000000000000000000000
#02110:41
#02215:00000000001300000000000000000013
#02218:0000000000000013
#02212:0013000013000000
#0231b:1300001313000013
#02318:0013000000001300
#02312:00000013000000000000000000000000
#02315:00000000001300000000000000001300
#02316:0013
#02415:00001300000000000000000013000013
#02412:1300001313000000
#0241b:00000013000000000000000000000000
#02418:00000000001300000000000000001300
#02417:0013
#0261b:1313
#0261a:00000013000000000000000000000000
#02619:0000001300000000
#02613:00000013000000000000000000000000
#02614:0000001300000000
#02612:1313
#02615:0000000000130013
#02618:00000000000000000000130000000013
#02813:00000013000000000000000000000000
#02814:0000001300000000
#02815:00000000000000001300000000000013
#0281a:00000013000000000000000000000000
#02819:0000001300000000
#02818:0000000013000013
#02812:1300000000130000
#0281b:1300000000130000
#02912:13000000000000000000001300000000
#0291b:13000000130000000000001300000000
#02918:0000000000000013
#02915:0013
#0291f:11
#00518:0000000013000013
#00515:0000001300000000
#00512:00000013000000001300000000000000
#0051b:13000000000000000000001300000000
#00517:00000013000000000000000000000000
#00516:00000000000000000000001300000000
#01315:23000013000000000000001300000000
#0131b:00000013000000000000001300000000
#01312:0000001323000000
#01318:0000000013000013
#0141b:13
#01412:0000001323001300
#01415:2313000000000000
#01414:0000000000000013
#01516:13000013000000000000000000000000
#01512:0000001300000000
#01518:00000013
#01515:0000000000000013
#01517:0000001300000000
#0151b:23000013000000002300000000000000
#01510:41
#01817:0013000000000000
#01819:00000000001300000000000000000000
#01816:0013
#02016:0013000000000000
#02014:00000000001300000000000000000000
#02017:0013
#02518:00130013
#0251b:2313
#02512:1313
#02515:00130000
#02715:00000000130000000000001300000000
#02712:2313
#0271b:1313
#02718:00130000
#02714:0000000000000013
#02719:0000000000000013
#02710:41
#0311b:13000000000000000000001300000000
#03112:13000000130000000000001300000000
#03115:0000000000000013
#03118:0013
#0381b:2300001300000000
#03818:0013000000000000
#03812:0000000023000013
#03815:0000000000130000
#04012:1300000000000013
#0401b:0000001313000000
#04017:13
#04014:00000013000000000000000000000000
#04016:0013
#04019:00000000000000000000001300000000
#01712:0033000000000000
#0171b:0000000000330000
#0191b:0033000000000000
#01912:0000000000330000
#00852:00000013
#00856:00000000000000630000000000000000
#01657:0053
#0165b:00000013
#01256:0063
#00355:00000053000000000000000000000000
#00352:53
#0045b:63
#00458:00000063000000000000000000000000
#03058:00130013
#0305b:1313
#03352:00000013000000000000000013000000
#0335b:13000013
#03358:0000005300000000
#03355:0000006300000000
#00156:00000023000000000000000000000000
#00157:00000000000000000000002300000000
#00152:53
#0015b:0063
#00258:0000000000230000
#0025b:0063
#00557:00000023000000000000000000000000
#00556:00000000000000000000002300000000
#0055b:63
#00552:0053
#00652:0053
#00655:0000000000230000
#01856:0053
#02057:0063
#02258:0013
#02252:0013
#02457:0053
#02552:5353
#02555:00630000
#02356:0063
#0275b:6363
#02758:00530000
#02652:00006333
#0265b:00005343
#02655:0000000000230000
#02658:0000000000230000
#02855:00006313
#02858:00005313
#02852:0000000000230000
#0285b:0000000000230000
#02955:0063
#02952:53000000000000000000006300000000
#0295b:00630000
#0315b:63000000000000000000005300000000
#03158:0053
#03152:00530000
#03252:1353
#0325b:00000013000000006300000000000000
#03752:00005333
#03755:0000000000230000
#03758:0000000000230000
#0375b:00006343
#03658:0053
#03655:0063
#03652:0000002300000000
#0365b:0000002300000000
#04052:13
#0405b:0013
#04056:0063
#04059:00000000000000000000006300000000
#04054:00000053000000000000000000000000
#04057:53
#04152:13000000001300000000000000000000
#0415b:00000013000000000000000000000000
#04155:00000016
#02152:53
#04557:00000000000000005252525252520000
#04556:0000000000000000000000000000000000540054005400540054005400000000
#03957:0053
#001320:1300002300000000
#001360:00000033000000000000000000000000
#0013b0:0000000013000023
#001370:00000000000000000000003300000000
#002320:13000000003333000000000000000000
#002360:00003333000000002300000000000000
#0023b1:00001323
#002381:0000000000530000
#003321:1300002300000000
#003351:00003333000000000000000000000000
#003381:00001323
#0043b1:1300002300000000
#004381:00003333000000000000000000000000
#004351:00001323
#0053b1:1300002300000000
#005371:00000033000000000000000000000000
#005321:0000000013000023
#005361:00000000000000000000003300000000
#0063b1:13000000003333000000000000000000
#006371:00003333000000002300000000000000
#006320:00001323
#006350:0000000000530000
#007370:1300002300000000
#0073b0:00000033000000000000000000000000
#007360:0000000013000023
#007320:00000000000000000000003300000000
#008360:00000000000000130000000000000000
#008320:00000023
#010320:00000013000023000000000000000000
#010350:00001323
#011380:00001323
#012360:0013
#012320:00000023
#0143b0:00000013000023000000000000000000
#014380:00001323
#015350:00001323
#016370:0013
#0163b0:00000023
#017350:13
#017320:00003333000023000000000000000000
#017381:00000013000023000000000000000000
#017381:0013
#0173b1:00000000000000000000333300002300
#017350:00000000000000000000001300002300
#018320:1323000000000000
#018340:00000013002300000000000000000000
#018360:0000001333000000
#018320:00000023
#0183b1:00001323
#019381:13
#0193b1:00003333000023000000000000000000
#019350:00000013000023000000000000000000
#019350:0013
#019320:00000000000000000000333300002300
#019381:00000000000000000000001300002300
#0203b1:1323000000000000
#020391:00000013002300000000000000000000
#020371:0000001333000000
#0203b1:00000023
#020320:00001323
#021320:13
#021360:00333333000023000000000000000000
#0213b1:00000013000023000000000000000000
#022381:1323000000000000
#0223b1:00000013002300000000000000000000
#022381:0000001323000000
#023361:0013
#023321:00000023
#024371:0013
#0243b1:00000023
#025321:1333
#025351:00330023
#026321:00001323
#026351:0000000000530000
#0263b0:00001323
#026380:0000000000530000
#0273b0:1333
#027380:00000000330000000000002300000000
#028380:00001323
#0283b0:0000000000530000
#028351:00001323
#028321:0000000000530000
#029321:13
#029351:00230000
#0293b0:00130000
#029380:0023
#029351:0000000013000023
#029321:00000000000000000000003300000000
#0313b1:13
#031381:00230000
#031320:00130000
#031350:0023
#031381:0000000013000023
#0313b1:00000000000000000000003300000000
#032321:0013
#032351:00000023
#0323b0:0013
#032380:00000023
#033350:0000001300000000
#033320:0000000000532300
#033381:0000001300000000
#0333b1:0000000000532300
#034321:1300002300000000
#034361:00000033000000000000000000000000
#0343b1:0000000013000023
#034371:00000000000000000000003300000000
#035321:1323000000000000
#0353b1:00001323
#0363b1:0000001300002300
#036381:0033
#036320:0000001300002300
#036350:0033
#0373b0:00001323
#037380:0000000000530000
#037321:00001323
#037351:0000000000530000
#038321:1323000000000000
#038351:00000013000023000000000000000000
#0383b1:0000000013230000
#038381:00000000000000000000001300002300
#039351:1323000000000000
#039371:0013
#0393b1:00000023
#040371:13
#040391:00000023000000000000000000000000
#040340:00000013000000000000000000000000
#040360:0000002300000000
#040360:0013
#040340:00000000000000000000002300000000
#040391:00000000000000000000001300000000
#040371:0000000000000023
#041361:00000000000000140056565700000000
#041351:0000000000000000000000000000005400000000000000002600000000000000
#041371:0054
#041341:0000000000000000000000000000000000550056000000560000000000000000
#041331:0000000000000000000000000000000000000000005700000000000000000000
#0443b1:12220000
#044331:00001222
#045371:00000000000000001252525252522200
#045361:0000000000000000000000000000000000540054005400540054005400000000
