This file was generated by Ched 2.7.0.0.
#TITLE ""
#ARTIST ""
#DESIGNER ""
#DIFFICULTY 0
#PLAYLEVEL
#SONGID ""
#WAVE ""
#WAVEOFFSET 0
#JACKET ""
#REQUEST "ticks_per_beat 480"
#00002: 4
#BPM01: 120
#00008: 01
#TIL00: ""
#HISPEED 00
#MEASUREHS 00
#00018:0000000000000013
#0021b:0000000000000013
#00318:0013000000000013
#00312:13
#00315:00000013000000000000000000000000
#0031b:0000001300000000
#00314:0024
#00310:41
#00812:00000000001400000000000000000000
#00817:00000000000000140000000000000000
#0081a:14
#00916:00000014000000000000001400000000
#0091a:0000001414000000
#00912:2400000000000014
#00910:41
#01015:00000013000000000000000000001300
#0101b:0000001300000000
#01018:0013000000000000
#01012:14
#01118:0000000013000013
#01115:00000013
#01212:0013000000000000
#01218:00000013000000000000000000000000
#01215:00000000001300001300000000000000
#0121b:1300001300000000
#03212:13
#03215:00000013000000000000000000000000
#03218:0013
#03318:00000023000000000000000000001300
#03315:23000000000023000000000000000013
#03515:0013001300000013
#03518:00000013001300000000000000000000
#0351b:13
#03510:41
#03618:0013000000000000
#03615:00000013000000000000000000000000
#03612:1300001300000000
#0361b:1300001300000000
#03614:0000000000000013
#03619:0000000000000013
#03715:00001300000000000000000000000013
#03718:00000013000000000000000000001300
#03712:1300001323000000
#0371b:1300001323000000
#04313:00000012000000000000000000000000
#0431b:0000001212000000
#04318:0012000000001200
#04316:1200000000000012
#04416:0000001200000000
#04519:12000012000000001212121212120000
#04515:0012001200000000
#04518:0000000000000000000000000000000000140014001400140014001400000000
#02115:00333300000000000000130000001300
#02118:0013
#02112:13000013
#0211b:0000000000000013
#02110:41
#02218:13000013000000000000000000000013
#02215:00000000001300000000000000001300
#02212:0013000000000000
#02318:0000000000000013
#0231b:0013001300000000
#02315:00000013001300001300000000000000
#02312:13
#02815:00000014000000000000130000000000
#02818:0000001400000000
#02812:1413
#00115:00000013000000000000000000000000
#00118:00000000000000000000001300000000
#00112:13
#0011b:0013
#00415:0013000000000013
#0041b:13
#00418:00000013000000002400000000000000
#00412:0000001300000000
#00518:00000013000000000000000000000000
#00515:00000000000000000000001300000000
#0051b:13
#00512:0013
#0241b:13
#02418:00000013001300001300000000000000
#02412:0013001300000000
#0271b:1313
#02718:00130000
#02710:41
#03815:0013000000000000
#03818:0000000000130000
#0381b:23
#03812:0023
#04018:13
#0401b:00000013000000000000000000000000
#04015:0013
#04012:00000000000000000000001300000000
#00612:0000000000000013
#00712:0013
#0071b:13
#00714:00000000000000000000003300000000
#00719:00000033000000000000000000000000
#01316:00000014000000000000001400000000
#01312:0000001414000000
#0131a:2400000000000014
#01418:00000013000000000000000000001300
#01412:0000001300000000
#01415:0013000000000000
#0141a:14
#01515:0000000013000013
#01518:00000013
#01510:41
#0161b:0013000000002300
#01615:00000013000000000000000000000000
#01618:00000000001300001300000000000000
#01612:1300001300000000
#01812:0013
#0201b:0013
#03018:00000013000000000000000000001300
#0301b:13
#03015:0013
#03915:0013000000000013
#0391b:2313
#03918:00000013
#03912:0023
#04112:00000000001400000000000000000000
#0411a:14
#04117:00000000000000240000000000000000
#02915:0013
#02912:13000000000000000000001300000000
#02918:00130000
#0291b:13
#0291f:11
#03115:00130000
#0311b:13000000000000000000001300000000
#03112:13
#03118:0013
#02618:0000000000130000
#0261b:0013
#02614:0000001400000000
#02617:00000014000000000000000000000000
#0261a:14
#02512:1313
#02515:00130000
#0341f:21
#01712:0033000000000000
#0171b:0000000000330000
#0191b:0033000000000000
#01912:0000000000330000
#0085a:64000014
#00857:00000000000000540000000000000000
#01255:0063
#03352:00000013
#03355:0000006300000000
#00155:00000023000000000000000000000000
#00158:00000000000000000000002300000000
#00152:53
#0015b:0063
#00558:00000023000000000000000000000000
#00555:00000000000000000000002300000000
#0055b:63
#00552:0053
#0225b:0013
#02458:0053
#02355:0063
#0275b:6363
#02758:00530000
#02852:00005333
#02855:0000000000230000
#03258:0063
#03252:53
#03255:00000063000000000000000000000000
#0405b:00000063000000000000000000000000
#04058:53
#04055:0063
#04052:00000000000000000000005300000000
#02152:53
#04559:00000000000000005252525252520000
#04558:0000000000000000000000000000000000540054005400540054005400000000
#00752:0053
#0075b:63
#01658:0053
#0165b:00000013
#01852:0053
#0205b:0063
#03752:00000013
#0375b:00000013
#0415a:64000014
#04157:00000000000000540000000000000000
#02955:0063
#02952:00000000000000000000005300000000
#03158:0053
#0315b:00000000000000000000006300000000
#0305b:63
#03058:00000053000000000000000000000000
#03055:0053
#0265b:00006343
#02658:0000000000230000
#02552:5353
#02555:00630000
#001320:1300002300000000
#001350:00000033000000000000000000000000
#0013b0:0000000013000023
#001380:00000000000000000000003300000000
#002350:13000000003333000000000000000000
#002320:00003333000000003300000000000000
#002360:00000023
#003340:00001424
#004380:00001424
#0053b0:1300002300000000
#005380:00000033000000000000000000000000
#005320:0000000013000023
#005350:00000000000000000000003300000000
#006380:13000000003333000000000000000000
#0063b0:00003333000000003300000000000000
#006370:00000023
#0073b0:13
#007390:00000033000000000000000000000000
#007370:0000002300000000
#007320:0013
#007340:00000000000000000000003300000000
#007360:0000000000000023
#0083a0:14
#008370:00000024000000000000000000000000
#008370:00000000000000140000000000000000
#0083a0:00000024
#0103b0:00001323
#011350:1300002300000000
#011320:00000033000000000000000000000000
#012350:0013
#012320:00000023
#014320:00001323
#015380:1300002300000000
#0153b0:00000033000000000000000000000000
#016380:0013
#0163b0:00000023
#017350:13
#017320:00003333000023000000000000000000
#017380:0013
#0173b0:00000000000000000000333300002300
#018350:13000000003333000000000000000000
#018320:00003333000000003300000000000000
#018360:00000023
#019380:13
#0193b0:00003333000023000000000000000000
#019350:0013
#019320:00000000000000000000333300002300
#020380:13000000003333000000000000000000
#0203b0:00003333000000003300000000000000
#020370:00000023
#021320:13
#021350:00333333000023000000000000000000
#0223b0:0000001323000000
#023350:0013
#023320:00000023
#024380:0013
#0243b0:00000023
#025320:1333
#025350:00330023
#0263b0:00001323
#026380:0000000000530000
#0273b0:1333
#027380:00330023
#028320:00001323
#028350:0000000000530000
#029350:0000000013000023
#029320:00000000000000000000003300000000
#0303b0:1300002300000000
#030380:00000033000000000000000000000000
#030350:0013
#030320:00000023
#031380:0000000013000023
#0313b0:00000000000000000000003300000000
#032320:1300002300000000
#032350:00000033000000000000000000000000
#032380:0013
#0323b0:00000023
#033350:0000001300000000
#033320:00000023
#0343b0:1300002300000000
#034370:00000033000000000000000000000000
#034320:0000000013000023
#034360:00000000000000000000003300000000
#0353b0:00001323
#036340:00001323
#036391:00001323
#0373b1:00001323
#037320:00001323
#038380:00000013000023000000000000000000
#038350:00000000000000000000001300002300
#039380:00000013000023000000000000000000
#040380:1300002300000000
#0403b0:00000033000000000000000000000000
#040350:0000000013000023
#040320:00000000000000000000003300000000
#0413a0:14
#041370:00000024000000000000000000000000
#041370:00000000000000140000000000000000
#0413a0:00000024
#042350:1200002200000000
#042330:00000032000000000000000000000000
#042390:0000000012000022
#0423b0:00000000000000000000003200000000
#0443a0:12220000
#044340:00001222
#045390:00000000000000001252525252522200
#045380:0000000000000000000000000000000000540054005400540054005400000000
