This file was generated by Ched 2.7.0.0.
#TITLE ""
#ARTIST ""
#DESIGNER ""
#DIFFICULTY 0
#PLAYLEVEL
#SONGID ""
#WAVE ""
#WAVEOFFSET 0
#JACKET ""
#REQUEST "ticks_per_beat 480"
#00002: 4
#BPM01: 120
#00008: 01
#TIL00: ""
#HISPEED 00
#MEASUREHS 00
#00018:0000000000000013
#00015:00000000000000000000000000000013
#00216:00000013
#00219:0000000000000013
#00217:13000000001313000000130000000000
#0021b:00001313000000001300000000000000
#00214:0000000000000013
#00212:0000000000130000
#00312:13000013000000001300000013000000
#00319:0000000000000013
#0031b:0013001300130000
#00317:1323
#00318:00000013000000000000000000000000
#00314:0000000000000013
#00315:0013000000000000
#00316:0000000000130000
#00310:41
#00816:1300000000001300000000000000000000130000000000000000000000000000
#0081b:13000013000000130000000013000000
#00817:000000000000000000000000000000000000000000000000000000000000000000000000000000000000000000000000000000000000000000000000130000000000000000000000000000000000000000000000000000000000000000000000000000000000001300000000000000000000000000000000000000000000000000000000000000000000000000000000000000000000000000000000000000000000000000000000000000000000000000000000000000000000000000000000
#00815:0000000000000013
#00818:00000000000000000000000000130013
#00812:00000000001300130000000013000000
#00919:00000013000000000000131300000000
#0091b:2300001313000000
#00912:1300000013000013
#00914:00001313000000000000001300000000
#00916:00000000001313000000000000000000
#00917:00000000000000000000000000131300
#00910:41
#0101b:1300001313001300
#01012:00001313000000000000000000000000
#01019:0000000000000013
#01015:1300000000000013
#01017:00001313000000000000000000000000
#0111b:0000001300130000
#01116:0000001300130000
#01114:00000013000000000000000000000000
#01112:13001313
#01115:0000000000000013
#01118:0000000000000013
#01117:0013
#03012:13000013000013001300000013000000
#03016:0000000000130013
#0301b:13000000130000001300001300001300
#03018:00000013
#03017:0013001300000000
#03015:00130000
#0321b:00000013000013000000130000000000
#03216:0013000000000000
#03212:1300001300000000
#03217:1313
#03215:00130000
#03318:0000232300000013
#03315:00000000000023000000000000000013
#03312:00000023000000000013000000000000
#0331b:23000000000000000013000000000000
#03316:23
#03317:0023000000000000
#04112:13000000001300240000000000000000
#04116:14000014001400000000000000001200
#0411b:00001313000000000000000000000000
#04119:00000000000000000000000000000012
#04214:00000012000000000000120000000000
#04216:0000001200000000
#0421a:00001200000000000000001200000000
#04218:0000000000000012
#0421c:1212
#04212:2212
#04314:00000012000000000000000000000000
#04316:0000001200000000
#0431a:0012000000000000
#04319:00000012
#04317:0000000000000012
#0431c:1212
#04312:1212
#04412:00120000
#0441b:0000001200000000
#0441c:00000012
#04415:12
#04419:0012
#04512:12
#04519:00000012000012000000000000000000
#0451c:12
#04517:00000000000000001212121212120000
#04516:0000000012001200120012000000000000140014001400140014001400000000
#04515:0000000000140014001400140000000000000000000000000000000000000000
#04514:0012
#0011b:1313000013000000
#00112:1300000013130000
#00116:00000013000000000000000000001300
#00117:00000000000013000000001300000000
#00712:1300000013001300000000000000000000000013000000000000000000000000
#0071b:0000001300000000000000000000000013000000130013000000000000000000
#00717:13000013000000000000000000000000
#00716:00000000000000001300001300000000
#02117:0000000000130013
#02116:00001313
#02115:00130000000000000000000000000000
#02118:0013000000000000
#02112:13001313
#0211b:0000000000130013
#02110:41
#02215:00000000000000000000000000000013
#02218:0000000000000013
#02212:1313001313000000
#0221b:00000013001300000000000000000000
#02317:00001313000000001300000013000000
#02319:0000000000000013
#02316:00000000001313000000130000000000
#0231b:1300001300000000
#02315:0000000000000013
#02312:13000013000000001300000000000000
#0261b:1313
#02617:0000001300130000
#02616:00000000230000001300000000000013
#02619:00000013000000000033003300001300
#02612:2300001300130000
#02614:00001300000000000033003300000000
#02916:1313
#02917:0000130000130000
#0291b:1300000000000013
#02912:00000000000000000000001300000000
#02919:0013000000001300
#02914:0000001300000000
#0291f:11
#00415:00000013000000000000000000001300
#00418:00001300000000000000000000000013
#0041b:13000013000000001300000013000000
#00412:0013001300130000
#00416:1323
#00417:0000000000130000
#01816:0013
#0181b:0013
#01817:0000000000130000
#02412:1300001300000000
#02416:00001313000000001300000013000000
#02417:00000000001313000000130000000013
#02414:0000000000000013
#0241b:13000013000000001300000000000000
#02517:1313
#0251b:00130033
#02514:0013001300130013
#02512:2323
#02516:00230023
#00617:00000013
#00614:0000000000000013
#00616:13000000001313000000130000000000
#00612:00001313000000001300000000000000
#00619:0000000000000013
#0061b:0000000000130000
#00512:13001313000000001300000000000000
#0051b:13000000000000001300131300000000
#00517:00000013000000000000000000001300
#00516:00000000000013000000001300000000
#01218:0013001300000013
#01215:00000000001300000000000000000013
#01212:13000013000013000000130000000000
#01216:0013
#0121b:13131313
#01217:0000000000130000
#01314:00000013000000000000131300000000
#01312:2300001313000000
#0131b:1300000023000013
#01319:00001313000000000000001300000000
#01317:00000000001313000000000000000000
#01316:00000000000000000000000000131300
#01412:2300001323001300
#01416:00001313000000000000000000000000
#01414:0000000000000013
#0141b:00001313000000000000000000000000
#01418:1300000000000013
#01512:0000001300130000
#0151b:23002313
#01518:0000000000000013
#01517:0000001300130000
#01519:00000013000000000000000000000000
#01515:0000000000000013
#01516:0013
#01510:41
#0161b:13000013000013000000130000000000
#01615:0013001300000000
#01618:00000000001300000000000000000000
#01617:00001323
#01612:23132323
#01616:0000000000130000
#02812:1313
#02816:0000001300130000
#02817:00231300
#02814:00000013000000000033003300000000
#0281b:2300001300130000
#02819:00001300000000000033003300000000
#02818:00000000000000000000000000000013
#02815:0000000000000013
#02716:1313
#02712:00130000
#02719:0013001300130013
#0271b:2323
#02717:00230023
#02714:00000000000000000000003300000000
#02710:41
#03117:1313
#03116:0000130000130000
#03112:1300000000000013
#0311b:00000000000000000000001300000000
#03114:0013000000001300
#03119:0000001300000000
#03516:00000013
#03519:0000000000000013
#03517:0000000000130000
#0351b:1313001313000000
#03512:00000013001300000000130000000000
#03514:0000000000000013
#03510:41
#03619:0000000000000013
#03612:13000000001313000000000013000000
#0361b:00001313000013000000000000000000
#0361b:0000001300000000
#03617:13000013
#03614:0000000000000013
#03615:0013
#03618:0013
#03616:00000013000000000000000000000000
#0341b:2300000013001300000000001300000013000000000000000013000000000000
#03412:1300000000000000001300000000000013000000130013000000000013000000
#03416:00000013000000000000000000000000
#03417:00000000000000000000001300000000
#0341f:21
#03716:13000000001300000000000000000000
#0371b:1300001323000000
#03717:00001313000000000000000000000000
#03712:00000013000013002300000000000000
#03713:0000000000140000
#03719:0000000000140000
#03715:0000000000000013
#03718:00000000000000000000000000000013
#04014:00000013000000000000000000000000
#04012:13000000001313000000000000000000
#0401a:0013000000000000
#04016:14001413
#04017:00130000
#04019:00000000000000000000001300000000
#0401b:00000000000000001300000000131300
#04013:0000000000130000
#0381b:2300001313000000
#03812:1300000023000013
#03816:00000013000000000000000000000000
#03817:00000000000000000000001300000000
#03819:00120000
#03815:00000012
#03912:00000013000000002300000000001300
#03916:13
#03919:00120000
#0391b:23000000000013000000001300000000
#03917:0013
#03915:00000012
#0171b:13000000000000000000001300000000
#01712:00000013000000001300000000000000
#01716:13
#01717:0013
#02017:0013
#02012:0013
#02016:0000000000130000
#01916:00000013000000001300000000000000
#0191b:00000013000000000000000000000000
#01917:13000000000000000000001300000000
#01912:00000000000000000000001300000000
#0305b:13130000
#03052:00001313
#00257:0000000000230000
#0025b:0063
#00152:53
#0015b:0063
#00157:00000000000000000000002300000000
#00156:00000023000000000000000000000000
#01856:0053
#0185b:00005343
#01852:00000013
#01857:0000000000230000
#02258:0013
#02252:0013
#02557:5353
#0255b:00630000
#02352:0053
#02356:0000000000230000
#02357:0013
#02656:00005343
#02652:0000000000230000
#0265b:00005343
#02657:0000000000230000
#02956:5363
#02957:00630000
#02952:00000000000000000000006300000000
#03257:0053
#03252:33
#0325b:00000043000000000000230000000000
#04156:14000014001400000000000000000000
#04152:00000034
#0415a:00000044
#04557:00000000000000005252525252520000
#04556:0000000052005200520052000000000000540054005400540054005400000000
#04555:0000000000540054005400540000000000000000000000000000000000000000
#0035b:0000000000230000
#00357:0053
#00352:00000023000000000000000000000000
#00452:0000000000230000
#00456:0063
#0045b:00000023000000000000000000000000
#00652:0053
#00656:0000000000230000
#0055b:63
#00557:00000023000000000000000000000000
#00552:0053
#00556:00000000000000000000002300000000
#0075b:0000002300000000000000000000000000000000000063000000000000000000
#00757:53000053000000000000000000000000
#00752:0000000000005300000000000000000000000023000000000000000000000000
#00756:00000000000000006300006300000000
#01052:00000053000000000000000000000000
#00856:2300000000000000000000000000000000230000000000000000000000000000
#0085b:23000000000000630000430000000000
#00852:00000000000000530000330000000000
#00857:000000000000000000000000000000000000000000000000000000000000000000000000000000000000000000000000000000000000000000000000000000000000000000000000000000000000000000000000000000000000000000000000000000000000002300000000000000000000000000000000000000000000000000000000000000000000000000000000000000000000000000000000000000000000000000000000000000000000000000000000000000000000000000000000
#0145b:00000063000000000000000000000000
#01657:00005333
#0165b:0000000000230000
#01652:00000033
#01556:0063
#01552:0000000000230000
#0245b:0063
#02457:0000000000230000
#02456:0013
#02857:00006333
#0285b:0000000000230000
#02852:00006333
#02856:0000000000230000
#02756:6363
#02752:00530000
#03157:6353
#0315b:00000000000000000000005300000000
#03156:00530000
#0335b:43000000000000000023000000000000
#03352:00000033000000000023000000000000
#03355:0000006300003300
#03358:0000005300004300
#03652:5300002300000000
#03655:0063
#03658:0053
#0365b:00000063000023000000000000000000
#03557:0000000000230000
#0355b:0063
#03452:5300000000000000002300000000000000000000000000000000000000000000
#03456:00000063000000000000000000000000
#0345b:0000000000000000000000000000000063000000000000000023000000000000
#03457:00000000000000000000005300000000
#03756:63
#03757:00000053000000000000000000000000
#03753:0000000000240000
#03759:0000000000240000
#03752:00005334
#0375b:0063
#0375a:00000044
#04052:53
#04056:14001463
#04057:00530000
#0405b:0063
#03852:23
#0385b:0023
#03956:23
#03957:0023
#0175b:23000000000000000000006300000000
#01752:00000053000000002300000000000000
#01756:23
#01757:0023
#02057:0063
#02052:00006333
#02056:0000000000230000
#0205b:00000013
#01956:00000063000000002300000000000000
#0195b:00000063000000000000000000000000
#01957:23000000000000000000005300000000
#01952:00000000000000000000005300000000
#01256:0063
#01252:0000000000230000
#01157:0053
#0115b:0000000000230000
#001320:13
#001360:0023000000000000
#001360:00000013000000000000000000000000
#001320:0000002300000000
#0013b0:0013
#001370:0000000000230000
#001370:00000000000000000000001300000000
#0013b0:0000000000000023
#002320:13
#002360:0023000000000000
#002360:00000013000000000000000000000000
#002320:00000000002300000000000000000000
#002320:0000001300000000
#002360:0023
#0023b1:00001323
#002371:0000000000330000
#003321:00000013000000000000000000000000
#003371:0000002300000000
#003371:00001323
#0033b1:0000000000330000
#0043b1:00000013000000000000000000000000
#004361:0000002300000000
#004361:00001323
#004321:0000000000330000
#0053b1:13
#005371:0023000000000000
#005371:00000013000000000000000000000000
#0053b1:0000002300000000
#005321:0013
#005361:0000000000230000
#005361:00000000000000000000001300000000
#005321:0000000000000023
#0063b1:13
#006371:0023000000000000
#006371:00000013000000000000000000000000
#0063b1:00000000002300000000000000000000
#0063b1:0000001300000000
#006371:0023
#006320:00001323
#006360:0000000000330000
#007370:13000033000000000000000000000000
#0073b0:0000005300000000000000002300000000000000000000000000000000000000
#007321:00000013000000000000000000000000
#007361:0000002300000000
#007361:00000000000000001300003300000000
#007321:0000000000000000000000000000000000000053000000000000000023000000
#0073b0:00000000000000000000001300000000
#007370:0000000000000023
#008360:13
#008320:0023000000000000
#0083b1:13
#008371:0023000000000000
#0083b1:00000000000000130000230000000000
#008371:000000000000000000000000000000000000000000000000000000000000000000000000000000000000000000000000000000000000000000000000000000000000000000000000000000000000000000000000000000000000000000000000000000000000005300000000000000000000000000000000000000000000000000000000000000000000000000000000000000000000000000000000000000000000000000000000000000000000000000000000000000000000000000000000
#008320:00000000000000130000230000000000
#008360:0000000000000000000000000000000000530000000000000000000000000000
#010320:00000013000000000000000000000000
#010370:0000002300000000
#010370:00001323
#011370:13
#011350:0023000000000000
#011390:00000013000000000000000000000000
#011370:00000000002300000000000000000000
#011370:00001323
#0113b0:0000000000330000
#012360:00001323
#012320:0000000000330000
#0143b0:00000013000000000000000000000000
#014360:0000002300000000
#014360:00001323
#015360:13
#015380:0023000000000000
#015340:00000013000000000000000000000000
#015360:00000000002300000000000000000000
#015360:00001323
#015320:0000000000330000
#016370:00001323
#0163b0:0000000000330000
#017360:1300002300000000
#017320:00003333000000000000000000000000
#0173b1:13
#017371:0023000000000000
#0173b1:00000013000023000000000000000000
#017371:0000000013000023
#0173b1:00000000000000000000333300000000
#017320:0013
#017360:0000000000230000
#017320:00000000000000000000001300002300
#0183b0:13
#018370:0023000000000000
#018341:00001323000000000000000000000000
#018370:00000013002300000000000000000000
#018341:00000000001323000000000000000000
#018370:0000001300530000
#0183b0:00003323
#018361:0013
#018321:0000000000532300
#019371:1300002300000000
#0193b1:00003333000000000000000000000000
#019320:1323000000000000
#019360:00000013000000000000000000000000
#019320:0000002300000000
#019360:0000000013000023
#019320:00000000000000000000333300000000
#0193b1:0000000013230000
#019371:00000000000000000000001300000000
#0193b1:0000000000000023
#020321:13
#020361:0023000000000000
#020390:00001323000000000000000000000000
#020361:00000013002300000000000000000000
#020390:00000000001323000000000000000000
#020361:0000001300530000
#020321:00003323
#020370:0013
#0203b0:0000000000532300
#0213b0:00000013000023000000000000000000
#021361:00000013000023000000000000000000
#022381:1323000000000000
#022351:00000013002300000000000000000000
#022381:0000001323000000
#023321:00001323
#023361:0000000000530000
#0243b1:00001323
#024371:0000000000530000
#025371:1333
#0253b1:0000330000003323
#026361:00001323
#026341:00000000000000000033003300000000
#026321:0000000000330000
#0263b0:00001323
#026390:00000000000000000033003300000000
#026370:0000000000330000
#027360:1333
#027320:0000330000000023
#027340:00000000000000000000003300000000
#028370:00001323
#028390:00000000000000000033003300000000
#0283b0:0000000000330000
#028321:00001323
#028341:00000000000000000033003300000000
#028361:0000000000330000
#029361:13
#029321:00230000
#029370:00130000
#0293b0:0023
#029361:0000000013000023
#029321:00000000000000000000003300000000
#031371:13
#0313b1:00230000
#031360:00130000
#031320:0023
#031371:0000000013000023
#0313b1:00000000000000000000003300000000
#032341:00001323
#032370:00001323
#0323b0:0000000000530000
#033350:0000001300002300
#033320:00000000000000000053000000000000
#033381:0000001300002300
#0333b1:00000000000000000053000000000000
#034321:13
#034361:0023000000000000
#034361:00000013000023000000000000000000
#034321:0000000000000000005300000000000000000000000000000000000000000000
#0343b1:0013
#034371:0000000000230000
#034371:00000000000000000000001300002300
#0343b1:0000000000000000000000000000000000000000000000000053000000000000
#035361:1323000000000000
#035371:00000013002300000000000000000000
#035361:0000001323000000
#0353b0:00001323
#035370:0000000000530000
#036320:13
#036360:0023000000000000
#0363b0:00000013000000000000000000000000
#036370:00000000002300000000000000000000
#0363b0:0000001300230000
#036380:0033
#036321:0000001300230000
#036351:0033
#037361:13
#037321:0023000000000000
#037371:00000013000000000000000000000000
#0373b1:00000000002300000000000000000000
#0373b1:0013
#037331:0000000000540000
#0373a1:00000024
#037320:00001324
#037390:0000000000540000
#038320:13
#038360:0023000000000000
#0383b1:00001323000000000000000000000000
#038361:00000000001323000000000000000000
#0383b1:0013
#038371:0000000000230000
#038320:00000000000000000000132300000000
#038370:00000000000000000000000000132300
#039360:13
#039320:0023000000000000
#039361:00001323000000000000000000000000
#039361:00000000001323000000000000000000
#039371:0013
#0393b1:0000000000230000
#039370:00000000000000000000132300000000
#039370:00000000000000000000000000132300
#040320:13
#040360:0023000000000000
#040370:00130000
#0403b0:0000002300000000
#0403b0:0013
#040370:0000000000230000
#040360:00000013
#040320:0000000000000023
#041320:00000000000000140000000024000000
#041350:000000000000000000000000000000000000000000000000000000000000000000000000000000000000000000000000000000000000000000000000000000000000000000000000000000000000000000000000000000000000000000000000000000000000000000000000000000000000000000000000000000000000000000000000000000000000000000000000000000000000000000000000000000000000000000000000000000000000000000000000000000000000000000000000000000000000000000000000000000000000000000000000000000000000000000000000000000000000000000000000000000000000000000000000000000000000000000000000000000000000000000000000000000000000000000000000000000000000000000000000000000000000000000000000000000000000000000000000000000000000000000000000000000000000000000000000000000000000000000000000000000000000000000000000000000000000000000000000000000000000000000000000000000000000000000000000000000000000000000000000000000000000000000000000000000000000000000000000000000000054000000000000000000000000000000000000000000000000000000000000000000000000000000000000000000000000000000000000000000000000000000000000000000000000000000000000000000000000000000000000000000000000000000000000000000000000000000000000000000000000000000000000000000000000000000000000000000000000000000000000000000000000000000000000000000000000000000000000000000000000000000000000000000000000000000000000000000000000000000000000000000000000000000000000000000000000000000000000000054000000000000000000000000000000000000000000000000000000000000000000000000000000000000000000000000000000000000000000000000000000000000000000000000000000000000000000000000000000000000000000000000000000000000000000000000000000000000000000000000000000000000000000000000000000000000000000000000000000000000000000000000000000000000000000000000000000000000000000000000000000000000000000000000000000000000000000000000000000000000000000000000000000000000000000000000000000000000000000000000000000000000000000000000000000000000000000000000000000000000000000
#041330:00000000000000005400005400000000
#041360:000000000000000000000000000000000000000000000000000000000000000000000000000000000000000000000000000000000000000000000000000000000000000000000000000000000000000000000000000000000000000000000000000000000000000000000000000000000000000000000000000000000000005400000000000000000000000000000000000000000000000000000000005400000000000000000000000000000000000000000000000000000000000000000000000000000000000000000000000000000000000000000000000000000000000000000000000000000000000000000000
#041340:00000000000000000054540000000000
#041370:000000000000000000000000000000000000000000000000000000000000000000000000000000000000000000000000000000000000000000000000000000000000000000000000000000000000000000000000000000000000000000000000000000000000000000000000000000000000000000000000000000000000000000000000000000000000000000000000000000000000000000000000000000000000000000000000000000000000000000000000000000000000000000000000000000000000000000000000000000000000000000000000000000000000000000000000000000000000000000000000000000000000000000000000000000000000000000000000000000000000000000000000000000000000000000000000000000000000000000000000000000000000000000000000000000000000000000000000000000000000000000000000000000000000000000000000000000000000000000000000000000000000000000000000000000000000000000000000000000000000000000000000000000000000000000000000000000000000000000000000000000000000000000000000000000000000000000000000000000000000000000000000000000000000000000000000000000000000000000000000000000000000000000000000000000000000000000000000000000000000000000000000000000000000000000000000000000000000000000000000000000000000000000000000000000000000000000000000000000000054000000000000000000000000000000000000000000000000000000000000000000000000000000000000000000000000000000000000000000000000000000000000000000000000000000000000000000000000000000000000000000000000000000000000000000000000000000000000000000000000000000000000000000000000000000000000000000000000000000000000000000000000000000000000000000000000000000000000000000000000000000000000000000000000000000000000000000000000000000000000000000000000000000000000000000000000000000000000000000000000000000000000000000000000000000000000000000000000000000000000000000000000000000000000000000000000000000000000000000000000000000000000000000000000000000000000000000000000000000000000000000000000000000000000000000000000000000000000000000000000000000000000000000000000000000000000000000000000000000000000
#0413a1:00000000000000140000000024000000
#041371:0000000000000000000000000000003400000000000000340000000000000000
#041391:00000000000000003400003400000000
#041361:0000000000000000000000000000000000340000003400000000000000000000
#041381:00000000000000000034340000000000
#041351:0000000000000000000000000000000000000034000000000000000000000000
#0443a1:12
#044371:00220000
#044341:0012
#044371:00000022
#045361:00001252525222000000000000000000
#045351:0000000000540054005400540000000000000000000000000000000000000000
#045371:00000000000000001252525252522200
#045361:0000000000000000000000000000000000540054005400540054005400000000
