This file was generated by Ched 2.7.0.0.
#TITLE ""
#ARTIST ""
#DESIGNER ""
#DIFFICULTY 0
#PLAYLEVEL
#SONGID ""
#WAVE ""
#WAVEOFFSET 0
#JACKET ""
#REQUEST "ticks_per_beat 480"
#00002: 4
#BPM01: 120
#00008: 01
#TIL00: ""
#HISPEED 00
#MEASUREHS 00
#00918:0014
#00914:00140000
#00912:00000014
#0091a:24
#00910:41
#01018:0014
#0101a:14
#01014:00140000
#02918:14140000
#02912:0014
#0291a:00000014
#0291f:11
#03114:14140000
#0311a:0014
#03112:00000014
#0441a:14
#04412:0014
#04414:14
#04418:0014
#0011a:14
#00114:0014
#00712:14
#0071a:0014
#00312:14
#00318:0014
#00310:41
#01718:14
#01714:0014
#01914:14
#01918:0014
#02312:14
#02318:0014
#02314:00000014
#0241a:14
#02412:0014
#02416:00140000
#0251a:1414
#02514:00140014
#0261a:14
#02618:00140000
#02712:1414
#02718:00140014
#02710:41
#02812:14
#02814:00140000
#03412:00160016
#03418:2616
#0341f:21
#03518:14141400
#03514:0014001400000000
#03512:00000014
#03510:41
#03818:00160016
#03812:2616
#03914:14141400
#03918:0014001400000000
#0391a:00000014
#04012:14
#04018:00140000
#04014:0014
#0401a:00000014
#0361a:14
#03614:00140000
#03618:0014
#03612:00000014
#03718:14
#03714:00140000
#0371a:0014
#04114:14
#04112:00000034003400140000000000000000
#0211a:14
#02114:0014
#02118:00000014
#02110:41
#02212:14
#0221a:0014
#02216:00140000
#03018:00240014
#03014:24
#03012:0024
#01112:14
#0121a:14
#00512:0014
#0051a:14
#01614:14
#01518:14
#01510:41
#01314:0014
#01318:00140000
#0131a:00000014
#01312:14
#01414:0014
#01412:14
#01418:00140000
#03218:24
#03214:00240000
#0321a:0024
#03212:0024
#03312:26
#00812:00000034003400340000000000000000
#01858:0014
#0265a:6414
#02658:00240000
#02852:5414
#02854:00240000
#02054:0014
#04152:00000000000000540000000000000000
#04154:54000014
#03352:00000016
#0125a:64
#01152:54
#0375a:0014
#01654:64
#01558:54
#002380:14
#002390:00340000
#0023a0:0024
#004340:14
#004330:00340000
#004320:0024
#0063a0:14
#006390:00340000
#006380:0024
#008320:14000034003400340000000000000000
#008340:00000024
#011320:14
#011340:00342400
#0123a0:14
#012380:00342400
#015380:14
#0153a0:00342400
#016340:14
#016320:00342400
#0183a0:14
#018380:00342400
#020320:14
#020340:00342400
#0263a0:1424
#026380:00340000
#028320:1424
#028340:00340000
#033320:16000036000036000000000026000000
#041340:14000024
#041320:00000034003400340000000000000000
#0423a0:14
#042380:0024
#043320:14
#043340:0024
#0453a0:14003434000034003400000000002400
