This file was generated by Ched 2.6.4.0.
#TITLE ""
#ARTIST ""
#DESIGNER ""
#DIFFICULTY 0
#PLAYLEVEL
#SONGID ""
#WAVE ""
#WAVEOFFSET 0
#JACKET ""
#REQUEST "ticks_per_beat 480"
#00002: 4
#BPM01: 178
#00008: 01
#TIL00: ""
#HISPEED 00
#MEASUREHS 00
#0031a:00140000
#0041a:14
#00412:00000014
#00512:0014
#00019:00140000
#00119:14
#00113:00000014
#00213:0014
#0061a:00140000
#00610:00410000
#00718:14
#00712:00000014
#00814:0014
#0241a:00140000
#02410:00410000
#0251a:14
#02512:00000014
#02718:00140000
#02818:14
#02814:00000014
#02612:0014
#02914:0014
#00918:00140000
#0101a:14
#01014:00000014
#01112:0014
#0151a:00140000
#01510:00410000
#01612:14
#0161a:00000014
#02118:00140000
#02214:14
#02218:00000014
#01712:0014
#02314:0014
#0301a:00140000
#0311a:14
#03114:00000014
#03318:00140000
#03310:00410000
#03418:14
#03412:00000014
#03214:0014
#03512:0014
#06318:00140000
#06412:14
#0641a:00000014
#0691a:00140000
#07014:14
#07018:00000014
#06514:0014
#07112:0014
#04912:00000016
#04910:00000041
#05012:16
#05118:00161600
#05212:00000016
#05312:16
#05412:0016
#05418:00260000
#05512:00000016
#05618:16
#05718:00160000
#05712:0016
#05812:00000016
#05918:16
#04818:00261600
#0481f:00210000
#0361f:00110000
#06010:00410000
#0123a0:00140000
#0133a0:24
#013320:00000014
#014320:0024
#018380:00140000
#019380:24
#019340:00000014
#020340:0024
#036380:00140000
#037380:24
#037320:00000014
#038320:0024
#0393a0:00140000
#0403a0:24
#040340:00000014
#041340:0024
#0423a0:00140000
#0433a0:24
#043340:00000014
#044340:0024
#045380:00140000
#046380:24
#046320:00000014
#047320:0024
#048380:00000016
#049380:26
#050320:00162600
#051380:00000016
#052380:26
#053320:00162600
#054380:00000016
#055380:26
#056320:00162600
#057380:00000016
#058380:26
#059320:00162600
#0603a0:00140000
#061380:24
#061320:00000014
#062340:0024
#066380:00140000
#0673a0:24
#067340:00000014
#068320:0024
