This file was generated by Ched 2.6.4.0.
#TITLE ""
#ARTIST ""
#DESIGNER ""
#DIFFICULTY 0
#PLAYLEVEL
#SONGID ""
#WAVE ""
#WAVEOFFSET 0
#JACKET ""
#REQUEST "ticks_per_beat 480"
#00002: 4
#BPM01: 178
#00008: 01
#TIL00: ""
#HISPEED 00
#MEASUREHS 00
#0001a:00120000
#00016:0012
#00018:00000012
#0011a:12
#00114:00000012
#00116:00120000
#00118:0012
#0021a:12
#00218:00120000
#00216:0012
#00314:00120000
#00318:0012
#00316:00000012
#00414:12
#0041a:00000012
#00418:00120000
#00416:0012
#00514:12
#00516:00120000
#00518:0012
#0061b:00130000
#00615:0013
#00618:00000013
#00610:00410000
#0071b:13
#00715:00130000
#00718:0013
#00712:00000013
#0081b:13
#00818:00130000
#00815:0013
#00912:00130000
#00918:0013
#00915:00000013
#01012:13
#01018:00130000
#01015:0013
#0101b:00000013
#01112:13
#01115:00130023
#01118:0013
#01518:0013
#01515:0000000000130000
#0151b:13
#01512:13
#01510:00410000
#0181b:13
#01812:00001313
#01818:0000000000131300
#01815:00230000
#02115:0013
#02118:0000000000130000
#02112:13
#0211b:13
#02415:13
#02412:00231300
#02417:0000000000130000
#02410:00410000
#02212:00130000
#02218:0000001300000000
#01718:00000013
#02318:00000013
#02312:0013
#02512:00130000
#0251b:0000001300000000
#02517:00000013
#02616:13
#02614:00130000
#02619:00130000
#02617:00001322
#02612:0013
#0261b:13
#02712:13
#0271b:13131300
#02716:0000000000130000
#02917:13000022
#02919:00130000
#02914:00130000
#02916:0013
#0291b:0013
#02912:13
#02812:0013
#02818:0000000000130000
#02815:00000013
#03016:0013
#0301b:1300000000130000
#03012:13230000
#03112:00130000
#0311b:0000001300001300
#03217:1313
#0321b:00130000
#03216:00130000
#03212:1313
#03215:00000022
#03317:0013
#03312:0000000000130000
#0331b:00130000
#03319:22
#03310:00410000
#0341b:00131300
#03417:00000013
#03412:00000013
#03416:0013
#0361b:1313
#03612:13130013
#03617:00130000
#0361f:00110000
#03516:1313
#03512:00130000
#03517:00130000
#0351b:1313
#03816:00000013
#0381b:00130013
#03812:1323
#03817:0013
#03717:00130000
#03712:00130000
#0371b:23000013
#03716:13000013
#0391b:00130000
#03916:00130000
#03919:0013
#03917:00000013
#03914:0013
#03912:00000013
#04019:0000001300000000
#04013:0013
#0401b:13
#04112:13
#04118:0000001300000000
#04115:00130000
#0411b:00000013
#04216:00130013
#04217:0013
#0421b:00130000
#04218:13
#0431b:00130000
#04316:00130000
#04317:23000013
#04312:13000013
#04416:1323
#04412:00000013
#04417:00130013
#0441b:0013
#04512:00130000
#04517:00130000
#04514:0013
#04516:00000013
#04519:0013
#0451b:00000013
#04614:0000001300000000
#0461a:0013
#04612:13
#04616:00000013
#0461b:00000013
#04717:1313
#04712:1313
#04716:00130000
#0471b:00130000
#04816:14000013
#0481b:0000230000130000
#0481f:00210000
#0631b:1313
#06315:0000000000130000
#06312:13
#0661b:13000013
#06612:0013
#06618:0000000000130000
#06615:00230013
#0601b:0013
#06015:0000000000130000
#06018:00230013
#06012:00000013
#06010:00410000
#06115:00130000
#06118:0000001313000000
#06112:0013
#06218:1300000000000013
#06215:00130013
#06212:0013000000000000
#0621b:00130000
#06518:00000013
#06515:0013
#06512:00000013
#04917:00130013
#04916:0013
#04912:00000013
#0491b:0013
#04910:00000041
#05016:1313
#05012:00130013
#0501b:1313
#05017:00130013
#05112:0000130000130000
#05117:00000013
#05218:00000013
#05319:13
#0531a:00130000
#05313:13
#05314:00130000
#05315:0013
#05312:00000013
#0531b:0013
#05318:00000013
#05412:0000130000130000
#05418:00130000
#0541b:00000000000000130000000000000000
#05515:00130000
#05518:0000001300001300
#0551b:0013
#0561b:13
#05612:0013
#05618:00130000
#05615:0000001300000000
#05712:13
#05715:00131300
#05718:0000000000130000
#05817:0013
#0581b:0000001300001300
#05812:0013
#05816:00000013
#05815:00130000
#05917:1313
#0591b:00130013
#05912:1313
#05916:00130013
#06912:1313
#06918:0000000000130000
#0691b:13
#07112:0013
#07015:00130000
#0701b:0000001300000000
#01415:0013000000001300
#01418:1300130000000013
#01412:00130000
#01312:00130000
#01318:0000001300000000
#0131b:0013
#01315:0013
#0121b:00001313
#01215:0000000000131300
#01218:23230000
#02018:0013000000001300
#02015:1300130000000013
#0201b:00130000
#0191b:00130000
#01915:0000001300000000
#01912:0013
#01918:0013
#06718:00130000
#06715:0000001313000000
#0671b:0013
#06815:1300000000000013
#06818:00130013
#0681b:0013000000000000
#06812:00130000
#02657:0013
#02652:0013
#02956:0013
#0295b:0013
#03252:0013
#03257:0013
#0355b:0013
#03556:0013
#03856:00000023
#0385b:00630023
#03852:5353
#03857:0053
#03757:00230000
#03752:00230000
#0375b:63000063
#03756:63
#03652:00530053
#0365b:0063
#04256:00630063
#04257:0053
#0435b:00230000
#04356:00230000
#04357:53000053
#04352:53
#04456:6363
#04452:00000023
#04457:00530023
#0445b:0063
#04757:0013
#04752:0013
#0605b:0013
#06057:33
#06052:33
#06058:00000013
#06155:00130000
#06152:0013
#06258:13
#06255:00000013
#0625b:00130000
#04956:0063
#04952:00000053
#0495b:0063
#04957:00000053
#05056:6363
#05052:00530023
#0505b:6363
#05057:00530023
#05458:00530000
#0545b:43000000000000230000000000000000
#05455:43
#05857:0053
#0585b:00000063
#05852:0053
#05856:00000063
#05957:5353
#0595b:00630023
#05952:5353
#05956:00630023
#06555:0063
#06552:00000023
#05355:0063
#05352:00000023
#0535b:0063
#05358:00000023
#0485b:00130000
#0125b:00000013
#01355:0013
#01458:00130000
#01552:13
#01852:00000013
#01958:0013
#02055:00130000
#0215b:13
#06352:13
#06652:0013
#06655:00000013
#06758:00130000
#0675b:0013
#06855:13
#06858:00000013
#06852:00130000
#0695b:13
#012320:00132300
#013380:13230000
#013350:00000013
#014350:23
#0143b0:00001323
#015320:00132300
#0153b0:00000013
#0163b0:23
#016351:13230000
#016380:00132300
#016321:00001323
#016380:00000013
#017380:23
#017351:13230000
#0173b0:00132300
#017351:0013
#018351:23
#0183b1:00132300
#019351:13230000
#019381:00000013
#020381:23
#020321:00001323
#0213b1:00132300
#021321:00000013
#022321:23
#022380:13230000
#022350:00001323
#0223b1:00000013
#0233b1:23
#023350:13230000
#023381:00132300
#0243b1:00130000
#024371:0023
#024321:00000013
#025361:23
#0253b0:13
#025370:00230000
#025360:0013
#025320:00000023
#027320:00130000
#027360:0023
#0273b0:00000013
#028370:23
#028321:13
#028361:00230000
#0283b0:00132300
#030370:00130000
#0303b0:0023
#030360:00000013
#031320:23
#031371:13
#0313b1:00230000
#031321:0013
#031361:00000023
#033361:00130000
#033321:0023
#033371:00000013
#0343b1:23
#034360:13
#034320:00230000
#036320:00130000
#036360:0023
#0363b1:0013
#036371:00000023
#036320:00000013
#037360:3323
#037320:00530000
#0373b1:1323
#037371:00530000
#0373b1:00000013
#038371:23
#038320:13
#038360:00230000
#0383b1:00130053
#038371:0033
#039371:23
#038320:0013
#038360:00000053
#039320:23
#040360:1300002300000000
#040370:00000013
#041370:23
#041350:0013
#042320:23
#042360:00130000
#042320:0023
#042371:0013
#0423b1:00000023
#042360:00000013
#043320:3323
#043360:00530000
#043371:1323
#0433b1:00530000
#043371:00000013
#0443b1:23
#044360:13
#044320:00230000
#044371:00130053
#0443b1:0033
#0453b1:23
#044360:0013
#044320:00000053
#045360:23
#046370:1300002300000000
#048320:00130000
#048360:0000000000230000
#0483b0:00000013
#0493b0:23
#049321:13230000
#049361:0013
#049321:00000033
#050361:3333
#050321:00330053
#051361:23
#0493b0:0013
#049370:00000033
#0503b0:3333
#050370:00330053
#0513b0:23
#0513b0:00130000
#051370:0000000000230000
#051320:00000013
#052320:23
#0523b1:13230000
#052360:00130000
#052320:00000023
#0533b0:0013
#053380:00000053
#0543b0:23
#053351:0013
#053321:00000053
#054351:23
#054381:0000130000230000
#0543b1:00000000000000530000000000000000
#054321:00000013
#055351:23
#0553b0:13
#055380:00230000
#055350:0013
#055320:00000033
#056350:23
#0563b0:0013
#057370:23
#0573b0:00132300
#057350:00000013
#058320:23
#058381:13
#0583b1:00230000
#058371:0013
#0583b1:00000033
#059371:3333
#0593b1:00330053
#060371:23
#058320:0013
#058360:00000033
#059320:3333
#059360:00330053
#060320:23
#060320:00130000
#060350:0023
#061380:13
#0613b0:00230000
#061320:00000013
#062350:23
#062380:0013
#0623b0:00000023
#063320:00130000
#063350:0023
#0633b0:00000013
#064380:23
#064321:13
#064351:00230000
#0643b0:00130000
#064380:0023
#064321:00001323
#064380:00000013
#0653b0:23
#065351:13
#065321:00230000
#0653b0:00132300
#065351:0013
#065321:00000053
#066351:23
#0663b1:00130000
#066381:0023
#067351:13
#067321:00230000
#0673b1:00000013
#068381:23
#068351:0013
#068321:00000023
#0693b1:00130000
#069381:0023
#069321:00000013
#070351:23
#070380:13
#0703b0:00230000
#070350:0013
#070320:00000023
#0703b1:00000013
#071381:23
#071320:13
#071350:00230000
#071381:00132300
