This file was generated by Ched 2.6.4.0.
#TITLE ""
#ARTIST ""
#DESIGNER ""
#DIFFICULTY 0
#PLAYLEVEL
#SONGID ""
#WAVE ""
#WAVEOFFSET 0
#JACKET ""
#REQUEST "ticks_per_beat 480"
#00002: 4
#BPM01: 178
#00008: 01
#TIL00: ""
#HISPEED 00
#MEASUREHS 00
#00018:00120000
#00014:0012
#00019:00000012
#00115:12
#00119:00000012
#0011a:00120000
#00116:0012
#00215:12
#00218:00120000
#00214:0012
#00618:00130000
#00613:0013
#00619:00000013
#00610:00410000
#00813:0013
#00814:13
#00818:00130000
#01215:00001313
#0121b:00001313
#01218:00230000
#0131b:00131300
#01315:00131300
#01312:13
#01318:00000013
#02415:0013
#02418:0000230000130000
#0241b:13
#02412:13
#02410:00410000
#02712:13
#0271b:13
#02715:0000130000130000
#02718:0013
#0361b:13130013
#03612:13
#03618:0013
#0361f:00110000
#04015:0013
#0401b:13
#04118:0000001300000000
#04115:00130000
#04816:14
#04812:00000013
#0481f:00210000
#05518:00130000
#05515:1300001300000000
#05815:00131300
#05818:0000001300001300
#0581b:0013
#05812:00000013
#0571b:00130000
#05718:0013
#05715:0000000000130000
#05712:00130000
#00316:00120000
#0031a:0012
#00315:00000012
#00419:12
#00415:00000012
#00414:00120000
#00418:0012
#00519:12
#00516:00120000
#0051a:0012
#00714:13
#0071a:00130000
#00715:0013
#00719:00000013
#00915:00130000
#0091a:0013
#00914:00000013
#0111a:0013
#01119:13
#01115:00130000
#01019:13
#01013:00130000
#01018:0013
#01014:00000013
#01412:00130013
#01418:00130013
#01415:1313
#0141b:13
#0151b:13
#01515:13
#01518:0000130000130000
#01512:00001313
#01510:00410000
#02115:0000130000130000
#0211b:00001313
#02112:13
#02118:13
#02212:1300001300000000
#02218:00131300
#02315:00000013
#02318:0013
#02518:00130000
#02515:0000001300000000
#02815:00130000
#02818:00001313
#02812:0000000000130000
#03012:13
#0301b:1300000000130000
#03015:0013
#03018:00230000
#03118:00130000
#03112:0000001300000000
#03315:00130000
#03318:2313
#03312:0000000000130000
#03310:00410000
#03718:13
#0371b:00130000
#03712:00000013
#03812:00130013
#03815:1313
#0391a:00140000
#03916:0014
#03912:00000014
#04218:00130013
#0421b:0013
#0431b:13
#04318:00130000
#04315:00000013
#04415:00130013
#04412:1313
#0451a:00140000
#04516:0014
#04512:00000014
#04615:00001313
#0461b:00000013
#04918:0013
#04912:0013
#04915:00000013
#0491b:00000013
#04910:00000041
#05018:1313
#05012:1313
#0501b:00130013
#05015:00130013
#05212:00000013
#05218:00130000
#05315:13
#05318:00130000
#0471a:14
#04716:00140000
#04712:0014
#0511b:00000013
#0541b:00000013
#05615:00130000
#05618:0000001300000000
#05915:1313
#0591b:1313
#05912:00130013
#05918:00130013
#06115:13
#06118:00000013
#06312:0013
#06318:0000000000130000
#06315:00000013
#0631b:00130000
#06915:00130013
#06912:0013
#06918:0000000000130000
#0691b:0013
#07018:13001313
#07012:00130013
#07015:0000001300000000
#0701b:00130000
#01818:00001313
#01812:00001313
#01815:00230000
#01912:00131300
#01918:00131300
#0191b:13
#01915:00000013
#0201b:00130013
#02015:00130013
#02018:1313
#02012:13
#06212:0013
#06718:13
#06715:00000013
#0681b:0013
#06518:0013
#06515:00000013
#0661b:13
#06615:00230000
#0711b:13130000
#07115:13130000
#07112:0013
#07118:0013
#02618:13130023
#02612:13130000
#02615:0013
#0261b:0013
#02915:13130023
#0291b:13130000
#02918:0013
#02912:0013
#03215:13000023
#03212:00131300
#03218:00131300
#0321b:13
#03516:0013
#03514:00130000
#03512:13
#0351b:0013
#03519:00130000
#03517:13
#03414:00000013
#03419:00000013
#0341b:0013
#03412:00130000
#03416:0013
#06018:00230000
#06010:00410000
#0365b:00630063
#03658:0053
#03758:53
#0375b:00230000
#03752:00000053
#03852:00530023
#03855:6363
#04258:00530053
#0425b:0063
#0435b:63
#04358:00230000
#04355:00000063
#04455:00630023
#04452:5353
#05052:0053
#05055:00000023
#05058:0053
#0505b:00000023
#04752:0014
#0515b:00000063
#05258:00530000
#0405b:63
#0595b:0063
#05958:00000023
#05955:0063
#05952:00000023
#02655:0013
#0265b:0013
#02958:0013
#02952:0013
#03258:0013
#03252:0013
#05457:13
#0605b:43
#06055:43
#03556:0013
#0355b:0013
#016380:1323
#0163b0:00330000
#016350:00000013
#017320:33
#017350:00230000
#0173b0:0013
#018380:23
#022350:00000013
#023320:33
#023350:00230000
#024350:00000013
#025320:23
#025380:0013
#0253b0:00000023
#027380:00000013
#0283b0:23
#030320:00000013
#031350:23
#0313b0:0013
#031380:00000023
#0333b0:00000013
#034380:23
#0363b0:00130033
#036380:0033
#037380:3323
#0373b0:00530000
#037320:00000013
#038350:3333
#038320:00330053
#039350:23
#0403b0:13
#040380:0000002300000000
#040380:00000013
#0413b0:23
#041350:0013
#042320:23
#042380:00130033
#0423b0:0033
#0433b0:3323
#043380:00530000
#043350:00000013
#044320:3333
#044350:00330053
#045320:23
#046380:13
#0463b0:0000002300000000
#0483b0:00130000
#048370:0000000000230000
#049380:13
#0493b0:00230000
#049321:13
#049351:00230000
#050321:0013
#050351:00000053
#051321:23
#050380:0013
#0503b0:00000053
#051380:23
#051320:00130000
#051360:0000000000230000
#0513b0:00000013
#052380:33330000
#0523b0:0023
#0533b0:0013
#054370:23
#054320:00130000
#054360:0000000000230000
#055380:0013
#0553b0:00000033
#056380:23
#056350:0013
#057320:23
#057380:00000013
#0583b0:23
#0593b0:0013
#059380:00000053
#0603b0:23
#059351:0013
#059321:00000053
#060351:23
#0603b1:0013
#060381:00000023
#060350:0013
#060320:00000023
#061320:00130000
#061350:0023
#061381:00130000
#0613b1:0023
#062351:13230000
#0623b0:13
#062380:00230000
#062380:00000013
#063380:23
#062351:00000013
#063321:23
#064381:13230000
#064350:00132300
#064380:00000013
#065380:23
#065351:13230000
#066321:0013
#066351:00000023
#066380:0013
#0663b0:00000023
#0673b0:00130000
#067380:0023
#067351:00130000
#067321:0023
#068381:13230000
#068320:13
#068350:00230000
#068350:00000013
#069350:23
#068381:00000013
#0693b1:23
