This file was generated by Ched 2.6.4.0.
#TITLE ""
#ARTIST ""
#DESIGNER ""
#DIFFICULTY 0
#PLAYLEVEL
#SONGID ""
#WAVE ""
#WAVEOFFSET 0
#JACKET ""
#REQUEST "ticks_per_beat 480"
#00002: 4
#BPM01: 178
#00008: 01
#TIL00: ""
#HISPEED 00
#MEASUREHS 00
#0031a:00140000
#00412:14
#0041a:00000014
#00512:0014
#00018:00140000
#00114:14
#00118:00000014
#00214:0014
#0061a:00140000
#00610:00410000
#00716:14
#00712:00000014
#00816:0014
#0391a:00140000
#03914:0014
#03918:00000014
#04018:00000014
#04114:14
#04814:0014
#04818:00000014
#0481a:00240000
#0481f:00210000
#05112:00140000
#0511a:0014
#05114:00000014
#05218:14000014
#05312:14000014
#0531a:00140000
#05314:0014
#0541a:00140000
#05414:0014
#05418:00000014
#05512:14
#05518:00140000
#05514:0014
#0551a:00000014
#05614:1400001400000000
#05618:00141400
#0561a:00000014
#05712:00140000
#05718:0014
#05714:00000014
#0581a:14
#05814:00140000
#05818:0014
#04512:00140000
#04518:0014
#04514:00000014
#04612:00000014
#02414:0014
#0241a:00240014
#02410:00410000
#02512:1414
#02518:00140000
#0251a:00000014
#02614:14
#0261a:00140000
#02612:0014
#02718:00140014
#02712:0014
#02814:1414
#0281a:00140000
#02818:00000014
#02912:14
#02918:00140000
#02914:0014
#03012:0014
#03018:00000014
#0301a:00240000
#03114:14
#0311a:00140000
#03112:0014
#03118:00000014
#03214:14
#0321a:00140000
#03212:0014
#0331a:00140000
#03314:0014
#03318:00000014
#03310:00410000
#03412:14
#03418:00140000
#03414:0014
#0341a:00000014
#03512:14
#03518:00140000
#03514:0014
#0371a:14
#03718:00140000
#03812:0014
#03814:00000014
#04314:14
#04312:00140000
#04418:0014
#0441a:00000014
#05018:0014
#0501a:00000014
#0091a:00140000
#01016:14
#01012:00000014
#01116:0014
#0151a:00140014
#01512:0014
#01510:00410000
#01612:14
#01618:00140000
#01614:0014
#0161a:00000014
#01714:14
#01718:00140000
#02118:00140000
#02112:0014
#0211a:00000014
#02214:14
#02218:00140000
#02212:0014
#0221a:00000014
#02314:14
#02318:00140000
#05918:00140000
#05912:0014
#05914:00000014
#06318:00140000
#06312:0014
#0631a:00000014
#06414:14
#06418:00140014
#06412:0014
#06512:14
#0651a:00140000
#06918:00140000
#06914:0014
#0691a:00000014
#07014:14
#07018:00140000
#07012:0014
#0701a:00000014
#07114:14
#07118:00140000
#07112:0014
#04712:0014
#04716:00140000
#0471a:14
#0361f:00110000
#04910:00000041
#06010:00410000
#0545a:00140000
#0375a:64
#03758:00240000
#03852:0054
#03854:00000024
#04354:64
#04352:00240000
#04458:0054
#0445a:00000024
#05058:0054
#0505a:00000024
#05354:0064
#05352:00000024
#05658:0054
#0565a:00000024
#05952:0054
#05954:00000024
#0485a:00140000
#0425a:14
#0123a0:00143424
#013320:14342400
#013380:00000014
#014380:34240000
#014340:00001434
#015340:24
#017320:0014
#018320:24
#0183a0:00140000
#018390:0034
#018380:00000024
#019320:14
#019330:00340000
#019340:0024
#019380:00000014
#020390:34
#0203a0:00240000
#020340:0014
#020330:00000034
#021320:24
#023320:00001434
#024320:24
#0363a0:00140034
#036380:0034
#0373a0:3424
#037380:00540000
#037320:00000014
#038340:34000054
#038320:00343400
#039320:24
#040320:1400003424000000
#0413a0:0000143434000000
#0423a0:24
#042340:00140034
#042320:0034
#043340:3424
#043320:00540000
#043380:00000014
#0443a0:34000054
#044380:00343400
#045380:24
#0463a0:1400003424000000
#049320:14240000
#0493a0:00001424
#050340:14240000
#050380:0014
#0503a0:00000054
#051380:24
#052340:00142400
#053340:0014
#053320:00000054
#054340:24
#056380:0014
#0563a0:00000054
#057380:24
#058320:00000014
#059320:24
#059320:0014
#059340:00000054
#060320:24
#060380:00140000
#060390:0034
#0603a0:00000024
#061340:14
#061330:00340000
#061320:0024
#0613a0:00000014
#062390:34
#062380:00240000
#062320:0014
#062330:00000034
#063340:24
#065340:0014
#066320:24
#066380:00140024
#0663a0:0034
#067340:1424
#067320:00340000
#0673a0:00000014
#068380:34
#0683a0:00240000
#068320:0014
#068340:00000034
#069320:24
