This file was generated by Ched 2.7.0.0.
#TITLE ""
#ARTIST ""
#DESIGNER ""
#DIFFICULTY 0
#PLAYLEVEL
#SONGID ""
#WAVE ""
#WAVEOFFSET 0
#JACKET ""
#REQUEST "ticks_per_beat 480"
#00002: 4
#BPM01: 142
#00008: 01
#TIL00: ""
#HISPEED 00
#MEASUREHS 00
#0011a:14
#00214:14
#00318:14
#00412:14
#0051a:14
#00510:41
#00614:14
#00718:14
#00818:14
#00914:14
#01014:14
#0111a:14
#01214:14
#01512:14
#01618:14
#01918:14
#02014:14
#02010:41
#02519:14
#02613:14
#02712:0016
#02718:26
#0271f:21
#02912:16
#02918:0016
#03118:1616
#03212:1616
#03318:16
#03312:0016
#03518:0016
#03512:26
#03718:16
#03712:0016
#03912:1616
#04018:1616
#0491a:14
#05014:14
#05118:14
#05212:14
#0211f:11
#04112:26
#04118:0026
#04212:26
#04318:26
#04312:0026
#04418:26
#04412:0026
#0531a:24
#05413:0024
#05419:0024
#01310:41
#02810:41
#03810:41
#04510:41
#0133a0:14
#0143a0:24
#017320:14
#018320:24
#021390:14
#022390:24
#023330:14
#024330:24
#028380:1626
#030320:1626
#034380:1626
#036320:1626
#038380:1626
#045380:16
#046380:26
#047330:14
#048330:24
