This file was generated by Ched 2.7.0.0.
#TITLE ""
#ARTIST ""
#DESIGNER ""
#DIFFICULTY 0
#PLAYLEVEL
#SONGID ""
#WAVE ""
#WAVEOFFSET 0
#JACKET ""
#REQUEST "ticks_per_beat 480"
#00002: 4
#BPM01: 142
#00008: 01
#TIL00: ""
#HISPEED 00
#MEASUREHS 00
#00218:00130013
#00215:0000001300130013
#0021b:0013
#00212:2313
#00217:23
#00312:13
#00315:00000000130000130000000013001300
#00318:00000000000013000000000000130000
#0031b:13
#00418:0013000000000013
#00416:00130013
#00414:0000001300000000
#00412:1313
#0041b:00130013
#00419:0000001300000000
#00417:0013
#00415:00000000000000000000000000000013
#00518:13000013000000000000000000000000
#00512:0013000000000023
#00515:00000000130000130000001300000000
#0051b:0000001300000023
#00510:41
#00612:0013000000130000
#00615:00130000
#00618:0000001300000000
#0061b:0000000013000013
#00617:0000000000130000
#00619:00000013
#00614:00000013
#00616:0000000000000013
#00712:1300000000000013
#00716:00130000
#00717:13
#0071b:00131300
#00718:00000000000000000000001300001300
#01012:0013000000130000
#01015:00130000
#01018:0000001300001400
#0101b:0013
#01017:0000000000140000
#01013:00000013
#01019:0000000000000014
#01014:0000000000000013
#0111a:14
#01115:13000013000000000000000000130013
#01118:0000130000000013
#01112:00000000000000001300001300000000
#01117:00000000000000000000001300000000
#01218:13131300
#0121b:0013000000130000
#01215:00000000001300130000000000000000
#01219:00000013
#01217:0000000000000013
#01212:0013000000000013
#01216:0000000000130000
#01214:00000013
#01317:0013000000000000
#0131b:00000000130000000013000000000000
#01315:0013
#01312:0013001300001300
#01318:00000000000000130000000000000000
#01319:0000000000000013
#01316:00130000
#01310:41
#01512:13
#01518:00000000130000000000000000130013
#01515:0000130000000013
#0151b:13000000000000001300001300000000
#01516:00000000000000000000001300000000
#01819:0000001300000013
#01817:1313
#01814:0000000000130000
#0181b:00000013
#01812:1313
#01816:00000013
#01917:13
#01915:00001300000000130000000000001300
#01918:00000013000013000000000000001300
#01912:13000000130000000000001300000000
#0191b:0013
#02016:0013000013000000
#02012:00130013
#02014:0000001300000000
#02017:00130013
#02019:0000001300000000
#0201b:0013
#02010:41
#02117:00130000
#02118:00000000000000130000000000000000
#0211b:0000000013131300
#02119:0000000000000013
#02112:00131300
#02116:00000013
#0211f:11
#02215:0013000000000000
#02218:00130000
#0221b:0000001313000000
#02216:0013
#02214:0000000000130000
#02212:00000013
#02217:13000013
#02317:00130000
#02318:00000000000000130000130000001300
#0231b:0013
#02316:0013
#02312:00130013
#0241b:13000013
#02418:0013000000000000
#02415:00130000
#02412:0000001300130000
#02416:00000013
#02414:0000000000000013
#02417:0013
#02518:00001300000000002300001300000000
#02515:00000013000013000000130000001300
#0251b:0000001300000013
#02512:2323
#02618:13001313
#02619:0013000000000000
#0261a:00130000
#0261b:0000001300130000
#02615:0000001300000013
#02612:1313
#02613:0013000000000000
#02614:00130000
#02717:00130000
#02712:23131300
#02715:0013001300130000
#02718:00000013
#0271b:2300000000000013
#0271f:21
#02812:2300000000001313
#02816:00130000
#0281b:2300130013001313
#02818:0013001300000000
#02810:41
#02917:1300000000130000
#02914:0013000000000000
#02919:00130013
#02916:0000001300000013
#0291b:0000001300000013
#0301b:13000013000000000000000013000000
#03012:13000000001300001300000013001300
#03016:0013000000000000
#03017:0000001300000013
#03114:13000013
#03116:0014001300000013
#03119:00130000
#0311b:0000001300000013
#03112:0000000000130000
#0321b:1300000000130000
#03218:0013000000000000
#03215:00130000
#03212:0000001300000013
#03219:00000013
#03217:0000001300000013
#03214:00000013
#0341b:23130013
#03418:0000001300130000
#03415:0013
#03412:00130013
#03416:23
#04217:00130013
#04219:0000001300130000
#0421b:2313
#04212:0000133300330000
#04216:2413
#04518:00130000000013000000000000000000
#04515:23001300001300000000000000000000
#04512:00000000000000130000001300001300
#0451b:00231300
#04510:41
#0461b:0013000023000000
#04612:00130023
#04614:0000001300000000
#04616:0013
#04618:0000000000000013
#04615:00000000000000000000000000000013
#04617:00130013
#04619:0000001300000000
#04715:00001300000000130000000000000000
#04718:00000013000013000000000000000000
#0471b:2300000013000023
#04712:00000000230000000000001300000000
#04812:0013000000130000
#04815:00130000
#04818:0000001300000000
#0481b:0000000013000013
#04817:0000000000130000
#04819:00000013
#04814:00000013
#04816:0000000000000013
#05315:0000000000130000
#05318:00000013
#05316:00140000
#0531b:2300002300000023
#05312:2300002300000023
#0001b:0000000000131300
#00016:0000000000131300
#00117:1300230000230000
#0011b:0023000023000023
#00112:0000230000230000
#00815:0013000000000013
#00817:00130013
#00819:0000001300000000
#0081b:1313
#00812:00130013
#00814:0000001300000000
#00816:0013
#00818:00000000000000000000000000000013
#00915:13000013000000000000000000000000
#0091b:0013000000000023
#00918:00000000130000130000001300000000
#00912:0000001300000023
#01416:1313
#01414:00000013000000000000001300000000
#01412:0000001300000013
#0141b:2323
#01419:00000023000000000000002300000000
#01417:0000002300000023
#01615:13131300
#01612:0013000000130000
#01618:00000000001300130000000000000000
#01614:00000013
#01616:0000000000000013
#0161b:0013000000000013
#01617:0000000000130000
#01619:00000013
#01716:0013000000000000
#01712:00000000130000000013000000000000
#01718:0013
#0171b:0013001300001300
#01715:00000000000000130000000000000000
#01714:0000000000000013
#01717:00130000
#03512:2300130000000013
#0351b:2313
#03518:0000000000130000
#03515:00000013
#03517:00130000
#03519:0013001300000000
#03614:0013001300000000
#0361b:2300130000001313
#03612:2300000013001313
#03616:00130000
#03716:1300000000130000
#03719:0013000000000000
#03714:00130013
#03717:0000001300000013
#03712:0000001300000013
#0381b:13000000001300001300000013001300
#03812:13000013000000000000000013000000
#03816:0000001300000013
#03817:0013000000000000
#03810:41
#03919:13000013
#03916:0014000000000000
#03914:00130000
#03912:0000001300000013
#0391b:0000000000130000
#03917:0000001300000013
#04012:1300000000130000
#04015:0013000000000000
#04018:00130000
#0401b:0000001300000013
#04014:00000013
#04016:0000001300000013
#04019:00000013
#04416:24130013
#04414:0000001300130000
#04412:2313
#0441b:0000133300330000
#04417:0013
#0521b:0013000000130000
#05218:00130000
#05215:0000001300000000
#05212:0000000013000013
#05216:0000000000130000
#05214:00000013
#05219:00000013
#05217:0000000000000013
#04915:00130000000013000000000000000000
#04918:23001300001300000000000000000000
#0491b:00000000000000130000001300001300
#04912:00231300
#05012:0013000023000000
#0501b:00130023
#05019:0000001300000000
#05017:0013
#05015:0000000000000013
#05018:00000000000000000000000000000013
#05016:00130013
#05014:0000001300000000
#05118:00001300000000130000000000000000
#05115:00000013000013000000000000000000
#05112:2300000013000023
#0511b:00000000230000000000001300000000
#03312:0023000023000023
#03316:0000230000230000
#0331b:0000230000230000
#04112:0023000000230023
#0411b:00232300
#04116:0000240000240000
#0431b:0023000000230023
#04312:00232300
#04316:0000240000240000
#05412:0023
#0541b:0023
#00056:00000053
#0035b:53
#00355:0000000000000053
#00452:23
#00758:0000000000000063
#0085b:23
#01057:0000000000440000
#01058:00000044
#01059:0000000000000044
#0115a:44
#01158:00530000
#00152:0000330000330000
#00252:33
#0135b:00000000000000000053000000000000
#01555:00630000
#01752:00000000000000000063000000000000
#01857:5313
#01852:53
#01856:00130013
#01957:13
#0195b:0053
#01958:0000000000000053
#02057:00000053
#02052:00000053
#02152:0053
#02156:00000023
#0225b:0063
#02257:00000023
#02252:00000023
#02356:0063
#02352:00000023
#02457:0063
#0245b:00000023
#02658:0013
#02652:0013
#02757:00530000
#0275b:1313
#02856:00630000
#02852:1313
#02956:0000005300000000
#0295b:0000001300000000
#0315b:0000005300000000
#03252:0000005300000000
#0335b:0000430000430000
#0345b:43
#03552:13630000
#03556:0013
#0365b:13530000
#03657:0013
#03757:0000006300000000
#03752:0000001300000000
#03952:0000006300000000
#0405b:0000006300000000
#04252:00530000
#04256:0023
#0425b:43
#0445b:00630000
#04457:0023
#04452:33
#0455b:0053
#04552:0000000000000053
#0475b:0053
#04752:00000000000000000000005300000000
#0535b:1300001300000013
#05352:1300001300000013
#0545b:0013
#05452:0013
#0415b:00430000
#04152:0000000000330000
#04352:00330000
#0435b:0000000000430000
#0305b:0013
#03052:0013
#03057:0000005300000000
#0385b:0013
#03856:0000006300000000
#03852:0013
#04952:0063
#0495b:0000000000000063
#05152:0063
#0515b:00000000000000000000006300000000
#000360:00000013
#001320:23
#0033b0:13
#003380:00230000
#003380:00001323
#003350:0000000000000013
#004320:53
#004350:0023000000000000
#005380:00000000000000001300002300000000
#007350:00000000000000001300002300000000
#007380:0000000000000013
#0083b0:53
#008380:0023000000000000
#009350:00000000000000001300002300000000
#011380:00130000
#0113b0:0023
#0133b0:00000000000000000013000000000000
#013370:00000023
#015350:00130000
#015320:0023
#017320:00000000000000000013000000000000
#017360:00000023
#018370:13
#0183b0:00230000
#018321:13
#018361:00230000
#0193b1:0013
#019371:00000000000000000000002300000000
#019381:0000000000000013
#0203b1:0023000000000000
#020321:00000013
#021361:23
#020370:00000013
#0213b0:23
#021320:0013
#021360:00000053
#022320:23
#0223b0:0013
#022370:00000053
#0233b0:23
#022321:00000013
#023361:23
#023361:0013
#023321:00000053
#024361:23
#024371:0013
#0243b1:00000053
#025371:23
#027371:00130000
#0273b1:0023
#028361:00130000
#028321:0023
#029361:0000001300000000
#029321:0000000000230000
#030371:0000001300000000
#0303b1:0023
#0313b1:0000001300000000
#031371:0000000000230000
#032321:0000001300000000
#032361:0000000000230000
#035321:00130000
#035361:0023
#0363b1:00130000
#036371:0023
#037371:0000001300000000
#0373b1:0000000000230000
#038361:0000001300000000
#038321:0023
#039321:0000001300000000
#039361:0000000000230000
#0403b1:0000001300000000
#040371:0000000000230000
#042321:0000133300332300
#042361:0033
#0443b1:0000133300332300
#044371:0033
#0453b1:0013
#045371:00000000000000000000002300000000
#045321:0000000000000013
#046361:0023000000000000
#0473b1:0013
#047371:00000000000000000000002300000000
#047320:00000000000000000000001300000000
#047360:0000000000000023
#049320:0013
#049360:00000000000000000000002300000000
#0493b0:0000000000000013
#050370:0023000000000000
#051320:0013
#051360:00000000000000000000002300000000
#0513b1:00000000000000000000001300000000
#051371:0000000000000023
