This file was generated by Ched 2.7.0.0.
#TITLE ""
#ARTIST ""
#DESIGNER ""
#DIFFICULTY 0
#PLAYLEVEL
#SONGID ""
#WAVE ""
#WAVEOFFSET 0
#JACKET ""
#REQUEST "ticks_per_beat 480"
#00002: 4
#BPM01: 142
#00008: 01
#TIL00: ""
#HISPEED 00
#MEASUREHS 00
#0021b:00130013
#00215:0000001300000013
#00212:2400000000130000
#00218:0013
#00418:0000130000000013
#00415:00000000000013000000000000000013
#0041b:00001313
#00412:0013000000001300
#00518:13000013000013000000000000000000
#00515:00001300130000130000000000000000
#00512:0000000000000024
#0051a:0000000000000024
#00510:41
#00612:0013000000130000
#00615:00130013
#00618:0000001300000013
#0061b:0013
#01012:0013000000140000
#01015:00130000
#01018:0000001300001400
#0101b:0013
#01014:0000000000000014
#0111a:14
#01115:0000130000000013
#0111b:00000000000000000000001300000000
#01118:00000000000000000000000000130013
#01112:00000000000000000000001300000000
#01215:13000000000000130000000013000000
#0121b:0013000013000000
#01212:0000130000000013
#01218:00000000001300000000130000000000
#01318:00001300130000130013000000001300
#01315:0000001313000000
#01312:0013130000000000
#01310:41
#01512:13000000000000000000001300000000
#0151b:13000000000000000000001300000000
#01518:0000130000000013
#01515:00000000000000000000000000130013
#01815:0000001300000013
#01818:1313
#0181b:00000013
#01812:0000000000130000
#01918:13000013000013001300000000001300
#01915:00001300130000130000000000000000
#01912:0000000000000013
#02018:00130013
#02015:0000001300000000
#02012:00001313
#02010:41
#02118:0000130013000013
#02115:00000000000000130000000013000000
#02112:0000130000130000
#0211f:11
#02218:0013000000130000
#02215:00130013
#02212:0000001300000000
#0221b:1313
#02412:1300000000130000
#02415:0013000000001300
#02418:0000130000000013
#0241b:0000001300000000
#02518:0000000000000013
#02515:0000001300000000
#02512:2323
#0251b:2323
#02619:0013000000000000
#0261a:0000001300000000
#0261b:0000000000130000
#02615:00000013
#02618:0000000000000013
#02612:13
#02613:00130000
#02614:0013
#02718:00130013
#02715:0000000000130013
#02712:23
#0271f:21
#02915:13000013
#02918:0013000000000013
#02912:00130000
#0291b:0000001300000000
#03018:00000013000000000000000000000000
#0301b:0000000000000013
#03012:13
#03015:0000001300000000
#03115:13000013
#03118:0013000000000013
#03112:00130000
#0311b:0000001300000000
#03212:13
#03215:0013000000001300
#03218:0000130000000013
#0321b:0000001300000000
#03412:00130013
#03418:0000001300130000
#03415:0013
#0341a:24
#04612:00130023
#04615:0000001300000000
#0461b:0013000000001300
#04618:0023
#0481b:0013000000000013
#04815:0000130000130000
#04818:0000001300001300
#04812:0013
#05315:0000000000130000
#05318:2600002600001300
#05312:0000160000000026
#00018:0000000000130000
#00015:00000013
#0071b:13
#00715:0000130000000013
#0281b:2300000000000013
#02815:00130000
#02810:41
#04217:0000133300330000
#0421b:0013
#04212:0000133300330000
#04216:0013
#0421a:24
#04918:1300000000000013
#04912:2313
#04915:00130000
#0491b:00230000
#00818:00000000130000000000000000000013
#00815:0000001300000013
#0081b:00001313
#00812:00000013
#00915:13000013000013000000000000000000
#00918:00001300130000130000000000000000
#00912:0000000000000024
#0091a:0000000000000024
#01618:13000000000000130000000013000000
#01612:0013000013000000
#0161b:0000130000000013
#01615:00000000001300000000130000000000
#01715:00001300130000130000130000001300
#0171b:0013130000001300
#01718:00000000000013000013000000000000
#02315:0000130013000013
#02318:00000000000000130000000013000000
#0231b:0000130000130000
#03515:00130013
#03518:0000000000130013
#0351b:23
#03718:13000013
#03715:0013000000000013
#0371b:00130000
#03712:0000001300000000
#03815:00000013000000000000000000000000
#03812:0000000000000013
#0381b:13
#03818:0000001300000000
#03810:41
#03918:13000013
#03915:0013000000000013
#0391b:00130000
#03912:0000001300000000
#0401b:13
#04018:0013000000001300
#04015:0000130000000013
#04012:0000001300000000
#03612:2300000000000013
#03618:00130000
#04416:0000133300330000
#04412:2413
#0441b:0000133300330000
#04417:0013
#0451b:13
#04512:13
#04510:41
#04715:13
#04718:0000130000000023
#0471b:23
#04712:00230000
#05212:0013000000000013
#05218:0000130000130000
#05215:0000001300001300
#0521b:0013
#05118:13
#05115:0000130000000023
#05112:23
#0511b:00230000
#0501b:00130023
#05018:0000001300000000
#05012:0013000000001300
#05015:0023
#00318:13
#0011a:0024000000000000
#00114:00240000
#00119:0024
#00113:0000000000240000
#00118:0000000000000024
#01418:2626
#01415:00000026000000000000002600000000
#01412:0000002600000026
#04112:0024000000000000
#04118:00240000
#04113:0024
#04119:0000000000240000
#04114:0000000000000024
#05416:0024
#03312:0024000000000000
#03318:00240000
#03313:0024
#03319:0000000000240000
#03314:0000000000000024
#0431a:0024000000000000
#04314:00240000
#04319:0024
#04313:0000000000240000
#04318:0000000000000024
#00055:00000053
#00154:00340000
#00153:0000000000340000
#00252:34
#01155:00630000
#0115a:14
#01358:00000000000000000053000000000000
#0185b:00130013
#01858:5313
#01958:1300000053000053
#01952:0000000000000053
#02058:00000053
#02052:00000053
#02654:0013
#02758:00530000
#0275b:0013
#02752:13
#0295b:0000005300000000
#0315b:0000005300000000
#0325b:0000005300000000
#04257:00530000
#0425b:0023
#0425a:44
#04252:00530000
#04256:0023
#04952:0063
#05358:1600001600000000
#05352:0000000000000016
#05456:0014
#04158:00440000
#04159:0000000000440000
#03052:0013
#03055:0000005300000000
#00755:0000000000000063
#01052:0000000000140000
#01058:00000014
#01054:0000000000000014
#01558:00530000
#02255:00000053
#02855:00630000
#0285b:13
#02852:0013
#03358:00440000
#03359:0000000000440000
#0345a:44
#03555:00630000
#0355b:13
#03552:0013
#03752:0000006300000000
#03952:0000006300000000
#04052:0000006300000000
#03858:0000006300000000
#0385b:0013
#03658:00530000
#03652:13
#0365b:0013
#04456:00630000
#04452:3423
#0445b:00630000
#04457:0023
#04354:00340000
#04353:0000000000340000
#0455b:53
#04552:63
#00358:53
#000350:00000013
#001320:23
#003380:13
#0033b0:0000000000000023
#005380:00000000000000001300002300000000
#007380:00000000000000001300002300000000
#007350:0000000000000013
#008320:0023000000000000
#009350:00000000000000001300002300000000
#011350:00130000
#011320:0023
#013380:00000000000000000013000000000000
#0133b0:00000023
#015380:00130000
#0153b0:0023
#018380:13
#0183b0:00230000
#019380:0013
#0193b0:00000000000000000000002300000000
#019380:0000000000000013
#0203b0:0023000000000000
#019321:0000000000000013
#020351:0023000000000000
#020321:00000013
#021351:23
#020380:00000013
#0213b0:23
#022350:00000013
#023320:23
#027380:00130000
#0273b0:0023
#028350:00130000
#028320:0023
#0293b0:0000001300000000
#029380:0000000000230000
#030350:0000001300000000
#030320:0023
#0313b0:0000001300000000
#031380:0000000000230000
#0323b0:0000001300000000
#032380:0000000000230000
#035350:00130000
#035320:0023
#036380:00130000
#0363b0:0023
#037320:0000001300000000
#037350:0000000000230000
#038380:0000001300000000
#0383b0:0023
#039320:0000001300000000
#039350:0000000000230000
#040320:0000001300000000
#040350:0000000000230000
#042370:0000133300332300
#0423b0:0033
#042321:0000133300332300
#042361:0033
#044361:0000133300332300
#044321:0033
#0443b0:0000133300332300
#044370:0033
#0453b0:13
#045380:0000000000000023
#045321:13
#045351:0000000000000023
#047381:00000000000000001300002300000000
#047350:00000000000000000000001300002300
#049320:0013
#049350:00000000000000000000002300000000
#051350:00000000000000001300002300000000
#051381:00000000000000000000001300002300
