This file was generated by Ched 2.7.0.0.
#TITLE ""
#ARTIST ""
#DESIGNER ""
#DIFFICULTY 0
#PLAYLEVEL
#SONGID ""
#WAVE ""
#WAVEOFFSET 0
#JACKET ""
#REQUEST "ticks_per_beat 480"
#00002: 4
#BPM01: 142
#00008: 01
#TIL00: ""
#HISPEED 00
#MEASUREHS 00
#00216:00130000
#00214:0013001300000000
#00218:0000001300000000
#00219:0000000000130013
#00217:23000013
#00212:23001313
#0021b:00130000
#00215:0000000000000013
#00312:0000130000001313
#0031b:1300001300000000
#00316:00000000000000131300000000000000
#00317:00000000000000000000000000131300
#0041b:0013000000001300
#00415:00000000000013000000000000000013
#00412:00001613
#00418:0000161300000013
#0051b:1313
#00514:0013000000000000
#00517:0000000000001300000000000000000000000013000000000000000000000000
#00512:13000000130000000000001300002500
#00519:0000001300000025
#00516:00000000000000130000000000000000
#0051a:00130000
#00513:0013
#00510:41
#00612:0013000000130000
#00615:0000130000001313
#00618:0000001300131300
#0061b:0000000013000013
#00617:0013000000000000
#0061a:00130000
#00613:0000001300000000
#00616:0013
#00712:13001300000000000000001300000000
#0071b:0000131313000000
#00717:00130013000000000000000000000000
#00718:0000000000000013
#00716:00000000001300130000000000000000
#00715:00000000000000000000000000130000
#01012:0013000013130000
#01015:0000131300160000
#01018:0000131300000000
#0101b:0013000013000000
#01014:00000013
#01019:0000000000000014
#01017:00000015
#01016:0000000000000013
#0111b:13000013000000000000001300000000
#01112:00000013000023002300000000001300
#01118:13000000130000000000000013000013
#01115:00000000130000000000000000130000
#01215:13001300000000130000000000000000
#01218:00000013001300001300000000000000
#01219:00000013
#0121b:00130000000000130000130000000000
#01217:0000000000000013
#01216:0000000000130000
#01214:00000000000000000000000000130000
#01212:00000000130000001300000000000013
#01317:0013000000000000
#0131b:23000000130000000000001300000000
#01318:00000000000000130013130013130000
#01312:00001300000023000000001300000000
#01316:00130000
#01315:13000000000000002313130013130000
#01310:41
#01512:13
#0151b:13130000
#01516:00000013130000142400000000000000
#01513:000000000000000000000000000000000000001a000000000000000000000000
#01518:00000000000000000000000000130013
#01515:0000000000000013
#0181b:00000013000013000000001300000000
#01818:00000000000000001300130000130000
#01815:00000000000000000013000013001300
#01812:13000000000013000000000000000013
#01816:00140000140000000000000000000000
#01918:1313001300000000
#01915:00000013001300130000000000000000
#0191b:00131300
#01912:00130000000000001300001300001300
#01916:0000000000000013
#01917:0000000000000000000000000000000000000013000000000000000000000000
#02017:0013130000000000
#0201b:00130000
#02016:0000001313001300
#02012:0000001313001300
#02010:41
#02118:0000131300000000
#02115:00000000000000130000000000000000
#0211b:0013000013001313
#02116:0000000000140013
#02112:00131313
#0211f:11
#02216:0013001313000013
#02217:13130013
#0221b:0013001300000013
#02212:13130013
#02214:0000000000130000
#02517:00001313000000000000000000000000
#02512:24000013000013002400000000001300
#0251b:00000000000013000000001300001300
#02516:00000000000000000000131300000000
#0251a:2424
#02616:1300001300000000
#02617:0013000013000013
#02618:0000130000130000
#02619:0000001300001300
#0261a:0013
#0261b:0000000000130000
#02613:13
#02614:0013000000000000
#02615:00130000
#02716:00001300130013000000000000000013
#02712:23000000130000001300001300000000
#02717:0000000000130000
#02719:00000013
#0271b:2300000000000013
#02714:00000000000000000000000000130000
#0271f:21
#02912:0013001300000000
#0291b:1300130000130000
#02917:0013001300001313
#02916:13000000130000000000000000130013
#0301b:13000013000000000000000013000000
#03012:1300001313001313
#03016:00001313000000000000000000000000
#03017:00000000001313000000000000001300
#03116:1300001313130000
#03114:0013000000000000
#03112:00130000
#0311b:1300001300000000
#03115:0000000000000013
#03119:0013000000000000
#03117:00130000
#03118:00000013
#03212:13
#03214:0013000000000000
#03216:0000131300000000
#03218:1313000000131300
#0321b:0000131300000013
#03215:0000000000001313
#0341b:2300131300000000
#03415:00000000000000001300130000130013
#03418:00000000000000000013001300001300
#03412:0000131300001300
#03414:0013000000000000
#03416:23
#04818:0000001300001316
#04812:0000000000160000
#04815:00000013
#04816:0013000000000000
#0481a:00130000
#0481b:0013
#05315:0000000000131300
#05318:26000000130000000000001300132600
#05312:2300132600000026
#0531b:0000002300000000
#00017:0000000000130000
#00012:0000000000130013
#0001b:00000013
#00016:00000013
#0011b:1323000023000023
#00116:1300001300001300
#00117:0000230000230000
#00112:0000230000230000
#00815:0013000000000013
#0081b:13131313
#00819:0000001300130000
#00812:00130013
#00814:0000001300130000
#00816:1313
#00818:00000013000000000000000000000013
#01716:0013000000130013
#01713:00130000
#01718:0013
#0171b:0013001300000013
#01715:00000000000000130000000000000000
#01712:13000000000000000013000013000000
#01717:00000000001300000000000000000000
#0171a:00000000000000000000001300000000
#0091b:1313000000000023
#00912:0000131313000023
#00916:00130013000000000000000000000000
#00915:00000000000000000013001300130000
#00917:00000000001300130000000000000000
#00918:0000000000131300
#01418:26000013000026001300002600001300
#01415:13000000000013000000001300000000
#01412:00000026000000002600000000002600
#01616:1200120000130000
#01613:0015000000000000
#01618:1215120000000000
#0161b:0000000000130000
#01619:00000013
#01617:0000000000000013
#01614:00000013
#01612:0000000000000013
#02315:0000131300000000
#02318:00000000000000130000000000000000
#02312:0013000013001300
#02316:0000000000140000
#0231b:00131313
#02317:0000000000000013
#02417:0013001300000013
#0241b:1300130013130000
#02416:00000000000000001300001300000000
#02419:00000013
#02414:00000000000000000000000000130000
#02412:00000000000000000000000000000013
#02817:0013131300000000
#0281b:23000000130000001300001300000000
#02818:00000000000000000000130000130000
#02815:00000013
#02812:2300000000000013
#02810:41
#0331b:1300231300231300
#03317:0013000013000013
#03312:0023000023000023
#03316:0000230000230000
#03517:00001300130013000000000000000013
#0351b:23000000130000001300001300000000
#03516:0000000000130000
#03514:00000013
#03512:2300000000000013
#03519:00000000000000000000000000130000
#0371b:0013001300000000
#03712:1300130000130000
#03716:0013001300001313
#03717:13000000130000000000000000130013
#03812:13000013000000000000000013000000
#0381b:1300001313001313
#03817:00001313000000000000000000000000
#03816:00000000001313000000000000001300
#03810:41
#03917:1300001313130000
#03919:0013000000000000
#0391b:00130000
#03912:1300001300000000
#03918:0000000000000013
#03914:0013000000000000
#03916:00130000
#03915:00000013
#03616:0013131300000000
#03612:23000000130000001300001300000000
#03615:00000000000000000000130000130000
#03618:00000013
#0361b:2300000000000013
#04116:1300240000241300
#04117:0000001300000000
#0411b:1323000000231323
#04112:0000231323000000
#04219:0013000000000000
#0421b:0000130013130000
#04217:0000001300001313
#04212:23000000000013000000000000130013
#04216:24000000000000000013001300000000
#04317:13000013
#04316:0000241300240000
#0431b:0000231323000000
#04312:0023000000231323
#04412:00001300000000130000000013000000
#0441b:23131300
#04418:00000000001300000000000000000000
#04415:0000001300000000
#04416:24
#04512:0000231313000000
#04516:00140014001400140000000000000000
#04515:0000000000000013
#0451b:23001300000000000000001300000000
#04518:00000000000000000000000000130000
#04510:41
#04618:0013000000000013
#0461b:00130023
#04619:0000001300130000
#04615:00000013000000000000000000000013
#04612:13
#04617:1323
#0471b:0000231313000023
#04716:00140014001400140000000000000000
#04712:23001300000000000000001300002300
#04718:00000000000000000013000000130000
#04715:0000000000131300
#05215:0000001300001300
#05212:0000000013000016
#05218:0000000000161300
#05217:0013000000000000
#05213:00130000
#0491b:0000231313000000
#04916:00140014001400140000000000000000
#04918:0000000000000013
#04912:23001300000000000000001300000000
#04915:00000000000000000000000000130000
#05015:0013000000000013
#05012:00130023
#05014:0000001300130000
#05018:00000013000000000000000000000013
#0501b:13
#05016:1323
#05112:0000231313000023
#05116:00140014001400140000000000000000
#0511b:23001300000000000000001300002300
#05115:00000000000000000013000000130000
#05118:0000000000131300
#0401b:13
#04019:0013000000000000
#04017:0000131300000000
#04015:1313000000131300
#04012:0000131300000013
#04018:0000000000001313
#05415:0022
#05419:0022
#00056:00000053
#00052:0000000000000023
#0035b:53
#00352:0000000000000053
#01055:0000000000460000
#01057:00000045
#01059:0000000000000044
#0115b:43
#01158:00530000
#01152:0000000000000013
#00152:0000330000330000
#00156:5300005300005300
#00252:33000053
#0025b:00530000
#00258:0000002300000000
#00255:0000000000000023
#01556:00635400
#01553:000000000000000000000000000000000000002a000000000000000000000000
#01858:0013
#01855:00000013
#01856:00140000
#01958:13
#0195b:0053
#01956:0000000000000053
#01957:0000000000000000000000000000000000000023000000000000000000000000
#02056:00000053
#02052:00000053
#0265a:0013
#02657:0013
#02658:0000000000530000
#02756:00530000
#0275b:1313
#02752:13
#02952:0000005300000000
#02957:0000001300000000
#0315b:0000005300000000
#03156:0023
#03256:0000005300000000
#0335b:5300435300435300
#03357:0023000023000023
#05358:1600000000000016
#05352:1300001600000016
#0535b:0000001300000000
#05459:0012
#05455:0012
#04152:00330000
#0415b:0000000000430000
#04156:63000063
#04157:0000006300000000
#04252:33
#0305b:0013
#03052:0013
#03057:0000005300000000
#0055b:0053
#00557:0000000000000000000000000000000000000023000000000000000000000000
#01458:46000033000046003300004600003300
#01452:00000036000000003600000000003600
#01455:43000000000043000000004300000000
#01656:52520000
#01653:0025000000000000
#01658:6225520000000000
#0165a:00000000000000420000000000000000
#01654:00000000000000320000000000000000
#01358:00000000000000000023630063230000
#01355:00000000000000000023530053230000
#01352:00000000000000000000002300000000
#0135b:00000000000000000000002300000000
#0125b:00130000000000000000000000000000
#01252:00130000
#0075b:0053
#02256:0000000000000023
#02257:00000053
#0225b:0000000000000023
#02252:00000053
#02857:00630000
#02852:1313
#0285b:13
#0345b:43
#03557:00630000
#03552:1313
#0355b:13
#0375b:0000006300000000
#03756:0000001300000000
#0385b:0013
#03856:0000006300000000
#03852:0013
#03952:0000006300000000
#03957:0023
#03656:00530000
#0365b:1313
#03652:13
#04357:53000053
#04356:0000005300000000
#0435b:00430000
#04352:0000000000330000
#0445b:4353
#04552:0063
#0495b:0053
#04057:0000006300000000
#000360:00000013
#000320:0000000000000053
#001360:33
#001320:00230000
#001360:0000001300000000
#001320:0000000000230000
#001360:00000013
#002320:23
#0023b0:00132300
#002380:0000005300000000
#002320:00000013
#002350:0000000000000053
#003320:23
#0033b1:13
#003371:00230000
#0033b1:00001323
#003321:0000000000000013
#004361:0023000000000000
#0053b1:00000000000000001300002300000000
#005371:0000000000000000000000000000000000000053000000000000000000000000
#0073b1:0013
#007371:00000000000000000000002300000000
#011381:00130000
#0113b1:0023
#013381:00000000000000000013000000530000
#013351:0000000000535323
#013321:00000000000000000000005300000000
#013350:00000000000000000013000000530000
#013380:0000000000535323
#0133b0:00000000000000000000005300000000
#015360:00130000
#015320:0023
#015361:00000000000000001400002400000000
#015331:000000000000000000000000000000000000005a000000000000000000000000
#016361:12520000
#016331:0055000000000000
#016341:0000000000000000000000530000220000000000000000000000000000000000
#016380:1255520000000000
#016390:0000000000000000000000530000000000000000000000000000000000000000
#0163a0:00000000000000220000000000000000
#0193b0:00000000000000001300002300000000
#019370:0000000000000000000000000000000000000053000000000000000000000000
#019360:0000000000000013
#0203b0:0023000000000000
#020320:00000013
#021370:23
#020361:00000013
#0213b1:23
#0223b1:0000000013000053
#022371:00000033
#023371:23
#022320:00000013
#022360:0000000000000053
#023320:23
#023320:0000000000000013
#024360:33330000
#024320:0033002300000000
#026380:0000000000130000
#027320:23
#027360:00130000
#0273b0:0023
#028370:00130000
#028320:0023
#029320:0000001300000000
#029360:0000000000230000
#030370:0000001300000000
#0303b0:0023
#0313b0:0000001300230000
#031360:0053
#032360:0000001300000000
#032320:0000000000230000
#0333b0:13230000
#033370:0053000000000000
#0333b0:0000001300230000
#033370:0053
#0333b0:00000013
#033370:0000000000000053
#0343b0:23
#035370:00130000
#035320:0023
#036360:00130000
#0363b0:0023
#0373b0:0000001300000000
#037370:0000000000230000
#038360:0000001300000000
#038320:0023
#039320:0000001300230000
#039370:0053
#040370:0000001300000000
#0403b0:0000000000230000
#041360:13
#041320:00230000
#041370:0000001300000000
#0413b0:0000000000230000
#041360:00000013
#042320:23
#043370:13
#0433b0:00230000
#043360:0000001300000000
#043320:0000000000230000
#043370:00000013
#0443b0:23
#0443b0:0013
#044360:00000023
#045320:0013
#045360:00000000000000000000002300000000
#046320:00133323
#046340:0000003300330000
#048320:0013000000000000
#048360:00330000
#048330:0000003300000000
#048370:0023
#0493b0:0013
#049370:00000000000000000000002300000000
#0503b0:00133323
#050390:0000003300330000
#0523b0:0013000000000000
#052370:00330000
#0523a0:0000003300000000
#052360:0023
